Цирюльник / The Barber (2014) BDRip [H.264]

 

Создавать темы 02-Май-2015 20:43

--Цирюльник / The Barber (2014) BDRip [H.264]--
    • Производство: США / Chapman Entertainment
    • Жанр: Триллер
    • Режиссер: Бэйзел Оуис
    • Актеры: Скотт Гленн, Стивен Тоболовски, Лидия Хёрст, Джессика Лу, Кристен Хагер, Крис Кой, Оливия Тейлор Дадли, Максимино Арсиньега, Тим Де Зарн, Вэлори Хаббард
    • Описание фильма:
        • В тихом маленьком городке живет обычный, ничем не примечательный старик. У него своя парикмахерская, он добропорядочный гражданин, его уважают и ценят окружающие. Но однажды его тихой и размеренной жизни приходит конец. Молодой человек, представившийся Джоном Лару, убежден, что парикмахер - никто иной, как серийный убийца, убивший 17 молодых женщин, закапывая их заживо.
- -
      • Продолжительность: 01:30:13
      • Качество видео: BDRip-AVC
      • Перевод: Любительский (одноголосый закадровый) Павел Морозов aka PashaUp
      • Видеокодек: MPEG-4 AVC/H.264
      • Битрейт видео: ~1778 Кбит/сек
      • Размер кадра: 1024x432
      • Аудиокодек: AC3 5.1
      • Битрейт аудио: 384 Кбит/сек
-

Mediainfo:

      • Код:
        Общее
        Уникальный идентификатор : 192305405469840317359651875475416324824 (0x90ACAC83CE28DF5CAF84D30D7F569AD8)
        Формат : Matroska
        Версия формата : Version 2
        Размер файла : 1,36 Гбайт
        Продолжительность : 1 ч. 30 м.
        Общий поток : 2164 Кбит/сек
        Дата кодирования : UTC 2015-04-29 14:57:46
        Программа кодирования : mkvmerge v6.1.0 ('Old Devil') built on Mar 4 2013 09:10:42
        Библиотека кодирования : libebml v1.3.0 + libmatroska v1.4.0
        Видео
        Идентификатор : 1
        Формат : AVC
        Формат/Информация : Advanced Video Codec
        Профиль формата : [email protected]
        Параметр CABAC формата : Да
        Параметр ReFrames формата : 3 кадра
        Идентификатор кодека : V_MPEG4/ISO/AVC
        Продолжительность : 1 ч. 30 м.
        Битрейт : 1778 Кбит/сек
        Ширина : 1024 пикселя
        Высота : 432 пикселя
        Соотношение сторон : 2,40:1
        Режим частоты кадров : Постоянный
        Частота кадров : 23,976 кадра/сек
        Цветовое пространство : YUV
        Субдискретизация насыщенности : 4:2:0
        Битовая глубина : 8 бит
        Тип развёртки : Прогрессивная
        Бит/(Пиксели*Кадры) : 0.168
        Размер потока : 1,09 Гбайт (80%)
        Библиотека кодирования : x264 core 130 r2273 b3065e6
        Настройки программы : cabac=1 / ref=3 / deblock=1:-1:-1 / analyse=0x3:0x133 / me=umh / subme=9 / psy=1 / psy_rd=1.00:0.10 / mixed_ref=1 / me_range=32 / chroma_me=1 / trellis=2 / 8x8dct=1 / cqm=0 / deadzone=21,11 / fast_pskip=0 / chroma_qp_offset=-3 / threads=6 / lookahead_threads=1 / sliced_threads=0 / nr=0 / decimate=1 / interlaced=0 / bluray_compat=0 / constrained_intra=0 / bframes=3 / b_pyramid=0 / b_adapt=2 / b_bias=0 / direct=3 / weightb=1 / open_gop=0 / weightp=2 / keyint=250 / keyint_min=25 / scenecut=40 / intra_refresh=0 / rc_lookahead=50 / rc=2pass / mbtree=1 / bitrate=1778 / ratetol=1.0 / qcomp=0.60 / qpmin=10 / qpmax=51 / qpstep=4 / cplxblur=20.0 / qblur=0.5 / ip_ratio=1.40 / aq=1:1.00
        Default : Да
        Forced : Нет
        Аудио
        Идентификатор : 2
        Формат : AC-3
        Формат/Информация : Audio Coding 3
        Расширение режима : CM (complete main)
        Параметр Endianness формата : Big
        Идентификатор кодека : A_AC3
        Продолжительность : 1 ч. 30 м.
        Вид битрейта : Постоянный
        Битрейт : 384 Кбит/сек
        Каналы : 6 каналов
        Расположение каналов : Front: L C R, Side: L R, LFE
        Частота : 48,0 КГц
        Битовая глубина : 16 бит
        Метод сжатия : С потерями
        Размер потока : 248 Мбайт (18%)
        Default : Да
        Forced : Нет
Скриншоты:
Яндекс.Метрика
Рейтинг@Mail.ru