Феникс / Phoenix (Кристиан Петцольд / Christian Petzold) [2014 г., драма, история, HDRip] MVO (Чистый звук) + Original (Eng)

 

Создавать темы 02-Май-2015 07:33

-Феникс / Phoenix- Производство: Германия, Польша
Год выпуска: 2014 г.
Жанр: драма, история
Продолжительность: 01:38:00
Мировая премьера: 5 сентября 2014
Российская премьера: 2 апреля 2015, «Cinema Prestige»-Перевод: Профессиональный (многоголосный, закадровый) [Чистый звук]
Оригинальный аудиопоток: немецкий-Режиссер: Кристиан Петцольд / Christian Petzold
В ролях: Нина Хосс, Рональд Церфельд, Нина Кунцендорф, Михаэль Мертенс, Имоген Когге, Керстен Блок, Уве Пройсс, Ева Бэй, Джефф Баррелл, София Эксс-Описание: Нелли Ленц, жертва Холокоста, которой удалось выжить в концлагере. Она ранена, у неё сильно искалечено лицо. Сотрудница Еврейского агентства Лене Винтер помогает Нелли добраться до Берлина, где ей сделали пластическую операцию. Поправившись после операции, Нелли начинает искать своего мужа, Йоханнса. Когда она наконец нашла его, Йоханнес не узнал свою жену, которую считает погибшей. Тем не менее, он признает, что эта незнакомая ему женщина похожа на его «покойную» жену. И тогда Йоханнес делает деловое предложение Нелли — она должна будет изображать его жену, чтобы получить состояние, которое ей досталось от семьи. Нелли соглашается…-Качество видео: HDRip
Контейнер: AVI
Видео кодек: XviD
Аудио кодек: AC3
Видео: 720x304 (2.37:1), 24.000 fps, XviD build 73 ~1729 kbps avg, 0.33 bit/pixel
Аудио: Russian: 48 kHz, AC3 Dolby Digital, 2/0 (L,R) ch, ~192 kbps
Аудио #2: German: 48 kHz, AC3 Dolby Digital, 2/0 (L,R) ch, ~192 kbps
Cубтитры: отсутствуют-

Media Info

General
Complete name : F:\Feniks.2014.P.HDRip.avi
Format : AVI
Format/Info : Audio Video Interleave
File size : 1.46 GiB
Duration : 1h 38mn
Overall bit rate : 2 128 Kbps
Writing application : VirtualDubMod 1.5.10.2 (build 2540/release)
Writing library : VirtualDubMod build 2540/release
Video
ID : 0
Format : MPEG-4 Visual
Format profile : Advanced [email protected]
Format settings, BVOP : 1
Format settings, QPel : No
Format settings, GMC : No warppoints
Format settings, Matrix : Custom
Codec ID : XVID
Codec ID/Hint : XviD
Duration : 1h 38mn
Bit rate : 1 730 Kbps
Width : 720 pixels
Height : 304 pixels
Display aspect ratio : 2.35:1
Frame rate : 24.000 fps
Color space : YUV
Chroma subsampling : 4:2:0
Bit depth : 8 bits
Scan type : Progressive
Compression mode : Lossy
Bits/(Pixel*Frame) : 0.329
Stream size : 1.18 GiB (81%)
Writing library : XviD 73
Audio #1
ID : 1
Format : AC-3
Format/Info : Audio Coding 3
Mode extension : CM (complete main)
Format settings, Endianness : Big
Codec ID : 2000
Duration : 1h 38mn
Bit rate mode : Constant
Bit rate : 192 Kbps
Channel(s) : 2 channels
Channel positions : Front: L R
Sampling rate : 48.0 KHz
Compression mode : Lossy
Stream size : 135 MiB (9%)
Alignment : Split accross interleaves
Interleave, duration : 42 ms (1.00 video frame)
Interleave, preload duratio : 500 ms
Audio #2
ID : 2
Format : AC-3
Format/Info : Audio Coding 3
Mode extension : CM (complete main)
Format settings, Endianness : Big
Codec ID : 2000
Duration : 1h 38mn
Bit rate mode : Constant
Bit rate : 192 Kbps
Channel(s) : 2 channels
Channel positions : Front: L R
Sampling rate : 48.0 KHz
Compression mode : Lossy
Stream size : 135 MiB (9%)
Alignment : Split accross interleaves
Interleave, duration : 42 ms (1.00 video frame)
Interleave, preload duratio : 500 ms
-Скриншоты:--
Яндекс.Метрика
Рейтинг@Mail.ru