[ Сегодня на трекере фрилич! Идет свободное скачивание без начисления Download ]

Медвежья шкура (Рудольф Фрунтов) [2009, Россия, мелодрама, HDTV 1080i] + Original Rus

 

Создавать темы 01-Май-2015 22:28

--Медвежья шкура-- --
  • Страна: Россия
  • Студия: Интра Фильм
  • Жанр: мелодрама
  • Год выпуска: 2009
  • Продолжительность: 01:34:18
  • Перевод: Не требуется
  • Cубтитры: нет
  • Оригинальная аудиодорожка: русский
  • Режиссер: Рудольф Фрунтов
  • В ролях: Любовь Толкалина, Александр Саюталин, Вера Тран, Ольга Шувалова, Евгений Пименов, Валерий Кащеев, Андрей Карако, Сергей Белякович, Никита Рулев, Мария Бидула
  • Описание:
    Семья распалась много лет тому назад. Не выдержав тягот жизни на Крайнем Севере, Елена с маленьким ребенком вернулась в родной город. Спустя 16 лет Сергей приезжает, чтобы поздравить с совершеннолетием дочь Юлю, с которой не виделся все эти годы. В подарок он привозит медвежью шкуру, а вместе с ней нерастраченную отцовскую любовь. Но Юля не спешит радоваться внезапному появлению в общем-то чужого для нее человека. Юношеский радикализм возобладает над родственными чувствами.
    Для Елены приезд Сергея тоже стал неприятным сюрпризом. У нее своя жизнь, в которой нет места воспоминаниям о прошлом. Только непутевая подруга Юли Марина способна оценить человеческие качества Сергея, в которого влюбилась с первого взгляда. Она осознает, насколько этот закаленный жизнью мужчина глубже и интересней ее избалованных дружков.
    Проходит время, и Юля начинает понимать, что под влиянием отца ее жизнь обретает новый смысл. Она уезжает в Москву поступать в институт. Сергей возвращается в свой далекий северный городок. Но теперь уже никакие расстояния и жизненные обстоятельства не смогут разлучить отца и дочь.

      • Сэмпл: http://multi-up.com/1046394
      • Тип релиза: HDTV 1080i
      • Контейнер: TS
      • Видео: AVC, 1920x1080, (16:9), 25 fps, 7.4 Mbps
      • Аудио: Русский, MP2, 48 kHz, 2 ch, 320 kbps

    MediaInfo

    General
    ID : 1 (0x1)
    Complete name : C:\Медвежья шкура_2009_HDTV 1080i_RU.ts
    Format : MPEG-TS
    File size : 5.32 GiB
    Duration : 1h 34mn
    Overall bit rate mode : Variable
    Overall bit rate : 8 077 Kbps
    Video
    ID : 1681 (0x691)
    Menu ID : 1680 (0x690)
    Format : AVC
    Format/Info : Advanced Video Codec
    Format profile : [email protected]
    Format settings, CABAC : Yes
    Format settings, ReFrames : 4 frames
    Codec ID : 27
    Duration : 1h 34mn
    Bit rate : 7 354 Kbps
    Width : 1 920 pixels
    Height : 1 080 pixels
    Display aspect ratio : 16:9
    Frame rate : 25.000 fps
    Color space : YUV
    Chroma subsampling : 4:2:0
    Bit depth : 8 bits
    Scan type : Interlaced
    Scan order : Top Field First
    Bits/(Pixel*Frame) : 0.142
    Stream size : 4.85 GiB (91%)
    Color range : Limited
    Color primaries : BT.709
    Transfer characteristics : BT.709
    Matrix coefficients : BT.709
    Audio
    ID : 1682 (0x692)
    Menu ID : 1680 (0x690)
    Format : MPEG Audio
    Format version : Version 1
    Format profile : Layer 2
    Codec ID : 3
    Duration : 1h 34mn
    Bit rate mode : Constant
    Bit rate : 320 Kbps
    Channel(s) : 2 channels
    Sampling rate : 48.0 KHz
    Compression mode : Lossy
    Delay relative to video : -80ms
    Stream size : 216 MiB (4%)
    Language : Russian

    Скриншоты

  • Яндекс.Метрика
    Рейтинг@Mail.ru