[ Сегодня на трекере фрилич! Идет свободное скачивание без начисления Download ]

(Punk-Rock) [CD] Красная Плесень "Новый Год" - 2006, FLAC (image+.cue), lossless

 

Создавать темы 01-Май-2015 20:34

Красная Плесень -
Новый Год

Жанр: Punk-Rock
Носитель: CD
Страна-производитель диска (релиза): Russia
Год издания: 2006
Издатель (лейбл): Master Sound Ltd
Номер по каталогу: MS CD 703 / 06
Страна исполнителя (группы): Россия / Украина
Аудиокодек: FLAC (*.flac)
Тип рипа: image+.cue
Битрейт аудио: lossless
Продолжительность: 00:51:19
Источник (релизер): My Collection
Наличие сканов в содержимом раздачи: да

Треклист:

01. Новый Год
02. Песни заряжены целительной энергией
03. Я иду по улице
04. Колхозный рок-н-ролл
05. Привет подруга, как дела
06. В тропическом лесу
07. Осень
08. Я упал на диван
09. Я кошу
10. Плачет девушка в автомате
11. Я сняла тебя на денсе
12. Капитан Гугенот
13. Идем мы с Петькой по двору
14. А почэму так мало сэрьэзных писэнь
15. Последний шаг
16. Я достал пистолет
17. Я бы хотел
18. Дадуда
19. Горпына Ды-р-р
20. Лесбиянки
21. Армия 453
22. Разложившийся труп
23. Тарантела
24. Если был бы я синоптик
25. Дыбыл денс

Лог создания рипа

Exact Audio Copy V1.0 beta 3 from 29. August 2011
Отчёт EAC об извлечении, выполненном 27. декабря 2014, 16:48
Красная Плесень / Новый Год
Дисковод: ATAPI   iHAS124   D   Adapter: 2  ID: 1
Режим чтения                 : ДостоверностьИспользование точного потока : ДаОтключение кэша аудио        : ДаИспользование указателей C2  : Нет
Коррекция смещения при чтении                     : 6Способность читать области Lead-in и Lead-out     : НетЗаполнение пропущенных сэмплов тишиной            : ДаУдаление блоков с тишиной в начале и конце        : НетПри вычислениях CRC использовались нулевые сэмплы : ДаИнтерфейс                                         : Встроенный Win32-интерфейс для Win NT/2000
Выходной формат          : Пользовательский кодировщикВыбранный битрейт        : 768 kBit/sКачество                 : ВысокийДобавление ID3-тега      : НетУтилита сжатия           : C:\Program Files (x86)\Exact Audio Copy\FLAC\FLAC.EXEДополнительные параметры : -6 -V -T "ARTIST=%artist%" -T "TITLE=%title%" -T "ALBUM=%albumtitle%" -T "DATE=%year%" -T "TRACKNUMBER=%tracknr%" -T "GENRE=%genre%" -T "COMMENT=%comment%" -T "BAND=%albuminterpret%" -T "ALBUMARTIST=%albuminterpret%" -T "COMPOSER=%composer%" %haslyrics%--tag-from-file=LYRICS="%lyricsfile%"%haslyrics% -T "DISCNUMBER=%cdnumber%" -T "TOTALDISCS=%totalcds%" -T "TOTALTRACKS=%numtracks%" %hascover%--picture="%coverfile%"%hascover% %source% -o %dest%
TOC извлечённого CD
Трек |   Старт  | Длительность | Начальный сектор | Конечный сектор    ---------------------------------------------------------------------       1  |  0:00.00 |    3:23.26   |           0      |      15250       2  |  3:23.26 |    0:33.42   |       15251      |      17767       3  |  3:56.68 |    1:40.24   |       17768      |      25291       4  |  5:37.17 |    2:33.65   |       25292      |      36831       5  |  8:11.07 |    3:10.07   |       36832      |      51088       6  | 11:21.14 |    1:42.51   |       51089      |      58789       7  | 13:03.65 |    2:26.19   |       58790      |      69758       8  | 15:30.09 |    1:50.02   |       69759      |      78010       9  | 17:20.11 |    2:02.51   |       78011      |      87211      10  | 19:22.62 |    2:41.21   |       87212      |      99307      11  | 22:04.08 |    1:28.60   |       99308      |     105967      12  | 23:32.68 |    2:31.46   |      105968      |     117338      13  | 26:04.39 |    2:14.52   |      117339      |     127440      14  | 28:19.16 |    0:15.42   |      127441      |     128607      15  | 28:34.58 |    2:21.37   |      128608      |     139219      16  | 30:56.20 |    3:05.61   |      139220      |     153155      17  | 34:02.06 |    2:35.28   |      153156      |     164808      18  | 36:37.34 |    2:34.47   |      164809      |     176405      19  | 39:12.06 |    2:12.72   |      176406      |     186377      20  | 41:25.03 |    3:00.57   |      186378      |     199934      21  | 44:25.60 |    1:21.02   |      199935      |     206011      22  | 45:46.62 |    1:22.48   |      206012      |     212209      23  | 47:09.35 |    0:34.49   |      212210      |     214808      24  | 47:44.09 |    1:58.72   |      214809      |     223730      25  | 49:43.06 |    1:36.60   |      223731      |     230990
Характеристики диапазона извлечения и сообщения об ошибках
Выбранный диапазон
Имя файла C:\Users\Temandroid\Desktop\Красная Плесень - Новый Год.wav
Пиковый уровень 70.8 %     Скорость извлечения 8.5 X     Качество диапазона 100.0 %     CRC теста 0C924D0D     CRC копии 0C924D0D     Копирование... OK
Ошибок не произошло
Конец отчёта
==== Контрольная сумма отчёта D01876807CCBD8804473DC056CC1EC8C151E812C067A22D7AE2506DA4ADE956A ====

Содержание индексной карты (.CUE)

REM GENRE "Punk Rock"REM DATE 2006REM DISCID 7A0C0719REM COMMENT "ExactAudioCopy v1.0b3"PERFORMER "Красная Плесень"TITLE "Новый Год"FILE "Красная Плесень - Новый Год.flac" WAVE  TRACK 01 AUDIO    TITLE "Новый Год"    PERFORMER "Красная Плесень"    INDEX 01 00:00:00  TRACK 02 AUDIO    TITLE "Песни заряжены целительной энергией"    PERFORMER "Красная Плесень"    INDEX 01 03:23:26  TRACK 03 AUDIO    TITLE "Я иду по улице"    PERFORMER "Красная Плесень"    INDEX 01 03:56:68  TRACK 04 AUDIO    TITLE "Колхозный рок-н-ролл"    PERFORMER "Красная Плесень"    INDEX 01 05:37:17  TRACK 05 AUDIO    TITLE "Привет подруга, как дела"    PERFORMER "Красная Плесень"    INDEX 01 08:11:07  TRACK 06 AUDIO    TITLE "В тропическом лесу"    PERFORMER "Красная Плесень"    INDEX 01 11:21:14  TRACK 07 AUDIO    TITLE "Осень"    PERFORMER "Красная Плесень"    INDEX 01 13:03:65  TRACK 08 AUDIO    TITLE "Я упал на диван"    PERFORMER "Красная Плесень"    INDEX 01 15:30:09  TRACK 09 AUDIO    TITLE "Я кошу"    PERFORMER "Красная Плесень"    INDEX 01 17:20:11  TRACK 10 AUDIO    TITLE "Плачет девушка в автомате"    PERFORMER "Красная Плесень"    INDEX 01 19:22:62  TRACK 11 AUDIO    TITLE "Я сняла тебя на денсе"    PERFORMER "Красная Плесень"    INDEX 01 22:04:08  TRACK 12 AUDIO    TITLE "Капитан Гугенот"    PERFORMER "Красная Плесень"    INDEX 01 23:32:68  TRACK 13 AUDIO    TITLE "Идем мы с Петькой по двору"    PERFORMER "Красная Плесень"    INDEX 01 26:04:39  TRACK 14 AUDIO    TITLE "А почэму так мало сэрьэзных писэнь"    PERFORMER "Красная Плесень"    INDEX 01 28:19:16  TRACK 15 AUDIO    TITLE "Последний шаг"    PERFORMER "Красная Плесень"    INDEX 01 28:34:58  TRACK 16 AUDIO    TITLE "Я достал пистолет"    PERFORMER "Красная Плесень"    INDEX 01 30:56:20  TRACK 17 AUDIO    TITLE "Я бы хотел"    PERFORMER "Красная Плесень"    INDEX 01 34:02:06  TRACK 18 AUDIO    TITLE "Дадуда"    PERFORMER "Красная Плесень"    INDEX 01 36:37:34  TRACK 19 AUDIO    TITLE "Горпына Ды-р-р"    PERFORMER "Красная Плесень"    INDEX 01 39:12:06  TRACK 20 AUDIO    TITLE "Лесбиянки"    PERFORMER "Красная Плесень"    INDEX 01 41:25:03  TRACK 21 AUDIO    TITLE "Армия 453"    PERFORMER "Красная Плесень"    INDEX 01 44:25:60  TRACK 22 AUDIO    TITLE "Разложившийся труп"    PERFORMER "Красная Плесень"    INDEX 01 45:46:62  TRACK 23 AUDIO    TITLE "Тарантела"    PERFORMER "Красная Плесень"    INDEX 01 47:09:35  TRACK 24 AUDIO    TITLE "Если был бы я синоптик"    PERFORMER "Красная Плесень"    INDEX 01 47:44:09  TRACK 25 AUDIO    TITLE "Дыбыл денс"    PERFORMER "Красная Плесень"    INDEX 01 49:43:06
Яндекс.Метрика
Рейтинг@Mail.ru