(Punk-Rock) [CD] Красная Плесень - Сопля в левом ухе - 2007, FLAC (image+.cue), lossless

 

Создавать темы 01-Май-2015 20:30

Красная Плесень
"Сопля в левом ухе"

Жанр: Punk-Rock
Носитель: CD
Страна-производитель диска (релиза): Russia
Год издания: 2007
Издатель (лейбл): Master Sound Ltd
Номер по каталогу: MS CD 679 / 07
Страна исполнителя (группы): Россия / Украина
Аудиокодек: FLAC (*.flac)
Тип рипа: image+.cue
Битрейт аудио: lossless
Продолжительность: 00:43:10
Источник (релизер): My Collection
Наличие сканов в содержимом раздачи: да

Треклист:

01. Индейцы племени шизы (02:36)
02. Этот ублюдок (02:22)
03. С утра я рано встаю (03:27)
04. Песню я вспомнил вчера (02:24)
05. Саня пионер (02:11)
06. Притон (02:03)
07. Некрофил (03:26)
08. Бобик ментовский (01:50)
09. Парамондия (02:01)
10. Желтая подводная лодка (01:59)
11. Расскажу Вам сказку (04:27)
12. Велик Украина (02:14)
13. Надувная цензура (03:19)
14. Лейсбиянки (02:56)
15. На площади обиженки (01:04)
16. ПеЦня (01:58)
17. Прибой (02:57)

Лог создания рипа

Exact Audio Copy V1.0 beta 3 from 29. August 2011
Отчёт EAC об извлечении, выполненном 29. декабря 2014, 15:24
Красная Плесень / Сопля в левом ухе
Дисковод: ATAPI   iHAS124   D   Adapter: 2  ID: 1
Режим чтения                 : ДостоверностьИспользование точного потока : ДаОтключение кэша аудио        : ДаИспользование указателей C2  : Нет
Коррекция смещения при чтении                     : 6Способность читать области Lead-in и Lead-out     : НетЗаполнение пропущенных сэмплов тишиной            : ДаУдаление блоков с тишиной в начале и конце        : НетПри вычислениях CRC использовались нулевые сэмплы : ДаИнтерфейс                                         : Встроенный Win32-интерфейс для Win NT/2000
Выходной формат          : Пользовательский кодировщикВыбранный битрейт        : 768 kBit/sКачество                 : ВысокийДобавление ID3-тега      : НетУтилита сжатия           : C:\Program Files (x86)\Exact Audio Copy\FLAC\FLAC.EXEДополнительные параметры : -6 -V -T "ARTIST=%artist%" -T "TITLE=%title%" -T "ALBUM=%albumtitle%" -T "DATE=%year%" -T "TRACKNUMBER=%tracknr%" -T "GENRE=%genre%" -T "COMMENT=%comment%" -T "BAND=%albuminterpret%" -T "ALBUMARTIST=%albuminterpret%" -T "COMPOSER=%composer%" %haslyrics%--tag-from-file=LYRICS="%lyricsfile%"%haslyrics% -T "DISCNUMBER=%cdnumber%" -T "TOTALDISCS=%totalcds%" -T "TOTALTRACKS=%numtracks%" %hascover%--picture="%coverfile%"%hascover% %source% -o %dest%
TOC извлечённого CD
Трек |   Старт  | Длительность | Начальный сектор | Конечный сектор    ---------------------------------------------------------------------       1  |  0:00.00 |    2:35.53   |           0      |      11677       2  |  2:35.53 |    2:21.66   |       11678      |      22318       3  |  4:57.44 |    3:27.19   |       22319      |      37862       4  |  8:24.63 |    2:23.65   |       37863      |      48652       5  | 10:48.53 |    2:10.55   |       48653      |      58457       6  | 12:59.33 |    2:02.27   |       58458      |      67634       7  | 15:01.60 |    3:26.05   |       67635      |      83089       8  | 18:27.65 |    1:49.62   |       83090      |      91326       9  | 20:17.52 |    2:00.47   |       91327      |     100373      10  | 22:18.24 |    1:58.32   |      100374      |     109255      11  | 24:16.56 |    4:26.27   |      109256      |     129232      12  | 28:43.08 |    2:13.74   |      129233      |     139281      13  | 30:57.07 |    3:19.16   |      139282      |     154222      14  | 34:16.23 |    2:56.15   |      154223      |     167437      15  | 37:12.38 |    1:03.61   |      167438      |     172223      16  | 38:16.24 |    1:57.39   |      172224      |     181037      17  | 40:13.63 |    2:56.24   |      181038      |     194261      18  | 45:42.12 |    0:45.11   |      205662      |     209047
Характеристики диапазона извлечения и сообщения об ошибках
Выбранный диапазон
Имя файла C:\Users\Temandroid\Desktop\Красная Плесень - Сопля в левом ухе.wav
Пиковый уровень 98.8 %     Скорость извлечения 8.1 X     Качество диапазона 100.0 %     CRC теста C739B1AF     CRC копии C739B1AF     Копирование... OK
Ошибок не произошло
Конец отчёта
==== Контрольная сумма отчёта 793B82045B3E081302C9C6376A827AA23E5CF4DAA5DA299D7398A7F789F22369 ====

Содержание индексной карты (.CUE)

REM GENRE "Punk Rock"REM DATE 2007REM DISCID F90AE312REM COMMENT "ExactAudioCopy v1.0b3"PERFORMER "Красная Плесень"TITLE "Сопля в левом ухе"FILE "Красная Плесень - Сопля в левом ухе.flac" WAVE  TRACK 01 AUDIO    TITLE "Индейцы племени шизы"    PERFORMER "Красная Плесень"    INDEX 01 00:00:00  TRACK 02 AUDIO    TITLE "Этот ублюдок"    PERFORMER "Красная Плесень"    INDEX 00 02:33:53    INDEX 01 02:35:53  TRACK 03 AUDIO    TITLE "С утра я рано встаю"    PERFORMER "Красная Плесень"    INDEX 00 04:55:44    INDEX 01 04:57:44  TRACK 04 AUDIO    TITLE "Песню я вспомнил вчера"    PERFORMER "Красная Плесень"    INDEX 00 08:22:63    INDEX 01 08:24:63  TRACK 05 AUDIO    TITLE "Саня пионер"    PERFORMER "Красная Плесень"    INDEX 00 10:46:53    INDEX 01 10:48:53  TRACK 06 AUDIO    TITLE "Притон"    PERFORMER "Красная Плесень"    INDEX 00 12:57:33    INDEX 01 12:59:33  TRACK 07 AUDIO    TITLE "Некрофил"    PERFORMER "Красная Плесень"    INDEX 00 14:59:60    INDEX 01 15:01:60  TRACK 08 AUDIO    TITLE "Бобик ментовский"    PERFORMER "Красная Плесень"    INDEX 00 18:25:65    INDEX 01 18:27:65  TRACK 09 AUDIO    TITLE "Парамондия"    PERFORMER "Красная Плесень"    INDEX 00 20:15:52    INDEX 01 20:17:52  TRACK 10 AUDIO    TITLE "Желтая подводная лодка"    PERFORMER "Красная Плесень"    INDEX 00 22:16:24    INDEX 01 22:18:24  TRACK 11 AUDIO    TITLE "Расскажу Вам сказку"    PERFORMER "Красная Плесень"    INDEX 00 24:14:56    INDEX 01 24:16:56  TRACK 12 AUDIO    TITLE "Велик Украина"    PERFORMER "Красная Плесень"    INDEX 00 28:41:08    INDEX 01 28:43:08  TRACK 13 AUDIO    TITLE "Надувная цензура"    PERFORMER "Красная Плесень"    INDEX 00 30:55:07    INDEX 01 30:57:07  TRACK 14 AUDIO    TITLE "Лесбиянки"    PERFORMER "Красная Плесень"    INDEX 00 34:14:23    INDEX 01 34:16:23  TRACK 15 AUDIO    TITLE "На площади обиженки"    PERFORMER "Красная Плесень"    INDEX 00 37:10:38    INDEX 01 37:12:38  TRACK 16 AUDIO    TITLE "ПеЦня"    PERFORMER "Красная Плесень"    INDEX 00 38:14:24    INDEX 01 38:16:24  TRACK 17 AUDIO    TITLE "Прибой"    PERFORMER "Красная Плесень"    INDEX 00 40:11:63    INDEX 01 40:13:63
Яндекс.Метрика
Рейтинг@Mail.ru