(Punk-Rock / Pop) [CD] Красная Плесень - Союз ХХХ холодная двадцатка популярных пародий - 2004, FLAC (image+.cue), lossless

 

Создавать темы 01-Май-2015 20:26

Красная Плесень - Союз ХХХ холодная двадцатка популярных пародий Жанр: Punk-Rock / Pop
Носитель: CD
Страна-производитель диска (релиза): Russia
Год издания: 2004
Издатель (лейбл): Giga-Records
Страна исполнителя (группы): Россия / Украина
Аудиокодек: FLAC (*.flac)
Тип рипа: image+.cue
Битрейт аудио: lossless
Продолжительность: 01:12:26
Источник (релизер): My Collection
Наличие сканов в содержимом раздачи: да

Треклист:

01. гр.Штурбанфюрер 'Бабушка Просковья' (02:40)
02. гр.Фруктоза 'Козавносе' (02:07)
03. гр.Штурбанфюрер 'Утрений дозор' (03:11)
04. гр.ПодаГра 'География' (02:37)
05. Кутузов и гр.МАРС 'Дедушка' (02:58)
06. гр.Дискотека Бавария 'Будулай' (03:15)
07. РУСОтуристо 'Насморк' (02:42)
08. гр.Животные 'Районы, карнизы' (03:11)
09. гр.Ветки 'Мюнхенский дождь' (02:59)
10. гр.Суфлекс 'Песня про всё' (02:43)
11. Ладзэ 'Раздраженья больше нет' (03:03)
12. гр.Дискотека Бавария 'Кто пописал на колонки?' (04:34)
13. Серый 'Рыжая подруга' (02:04)
14. Бабушки М.С 'Наш тусняк' (01:49)
15. гр.Вожди 'Молодой плешивый' (02:57)
16. Бабушки М.С 'Когда ухи мне целуешь' (01:59)
17. Свистящие 'А я тут летала' (02:19)
18. гр.Лагуна "Ботаник на пляже-2" (02:43)
19. гр.Пруд Ильзы "Скрутило кишки" (03:30)
20. гр.Обритые мошенники "Стройбат" (03:22)
21. Фабрика Грез №7 "Шоколадный глазик" (02:43)
22. гр.Животные "Все, что ко мне прилагается" (01:47)
23. гр.Пропала Ганда "Дрессировщица" (02:44)
24. Серый "Черный ЗАпор" (02:47)
25. гр.Ветки "Гадил под березой" (02:57)
26. Смердючка & Фруктоза "С женихом потела" (02:24)

Лог создания рипа

Exact Audio Copy V1.0 beta 3 from 29. August 2011
Отчёт EAC об извлечении, выполненном 29. декабря 2014, 16:20
Красная Плесень / Союз ХХХ холодная двадцатка популярных пародий
Дисковод: ATAPI   iHAS124   D   Adapter: 2  ID: 1
Режим чтения                 : ДостоверностьИспользование точного потока : ДаОтключение кэша аудио        : ДаИспользование указателей C2  : Нет
Коррекция смещения при чтении                     : 6Способность читать области Lead-in и Lead-out     : НетЗаполнение пропущенных сэмплов тишиной            : ДаУдаление блоков с тишиной в начале и конце        : НетПри вычислениях CRC использовались нулевые сэмплы : ДаИнтерфейс                                         : Встроенный Win32-интерфейс для Win NT/2000
Выходной формат          : Пользовательский кодировщикВыбранный битрейт        : 768 kBit/sКачество                 : ВысокийДобавление ID3-тега      : НетУтилита сжатия           : C:\Program Files (x86)\Exact Audio Copy\FLAC\FLAC.EXEДополнительные параметры : -6 -V -T "ARTIST=%artist%" -T "TITLE=%title%" -T "ALBUM=%albumtitle%" -T "DATE=%year%" -T "TRACKNUMBER=%tracknr%" -T "GENRE=%genre%" -T "COMMENT=%comment%" -T "BAND=%albuminterpret%" -T "ALBUMARTIST=%albuminterpret%" -T "COMPOSER=%composer%" %haslyrics%--tag-from-file=LYRICS="%lyricsfile%"%haslyrics% -T "DISCNUMBER=%cdnumber%" -T "TOTALDISCS=%totalcds%" -T "TOTALTRACKS=%numtracks%" %hascover%--picture="%coverfile%"%hascover% %source% -o %dest%
TOC извлечённого CD
Трек |   Старт  | Длительность | Начальный сектор | Конечный сектор    ---------------------------------------------------------------------       1  |  0:00.00 |    2:40.01   |           0      |      12000       2  |  2:40.01 |    2:08.58   |       12001      |      21658       3  |  4:48.59 |    3:12.07   |       21659      |      36065       4  |  8:00.66 |    2:37.58   |       36066      |      47898       5  | 10:38.49 |    2:59.71   |       47899      |      61394       6  | 13:38.45 |    3:16.22   |       61395      |      76116       7  | 16:54.67 |    2:43.15   |       76117      |      88356       8  | 19:38.07 |    3:11.37   |       88357      |     102718       9  | 22:49.44 |    2:59.28   |      102719      |     116171      10  | 25:48.72 |    2:44.40   |      116172      |     128511      11  | 28:33.37 |    3:04.51   |      128512      |     142362      12  | 31:38.13 |    4:33.37   |      142363      |     162874      13  | 36:11.50 |    2:05.24   |      162875      |     172273      14  | 38:16.74 |    1:50.17   |      172274      |     180540      15  | 40:07.16 |    2:56.61   |      180541      |     193801      16  | 43:04.02 |    1:59.67   |      193802      |     202793      17  | 45:03.69 |    2:21.16   |      202794      |     213384      18  | 47:25.10 |    2:43.48   |      213385      |     225657      19  | 50:08.58 |    3:30.42   |      225658      |     241449      20  | 53:39.25 |    3:22.70   |      241450      |     256669      21  | 57:02.20 |    2:43.41   |      256670      |     268935      22  | 59:45.61 |    1:47.11   |      268936      |     276971      23  | 61:32.72 |    2:44.03   |      276972      |     289274      24  | 64:17.00 |    2:47.46   |      289275      |     301845      25  | 67:04.46 |    2:57.04   |      301846      |     315124      26  | 70:01.50 |    2:24.32   |      315125      |     325956
Характеристики диапазона извлечения и сообщения об ошибках
Выбранный диапазон
Имя файла C:\Users\Temandroid\Desktop\Красная Плесень - Союз ХХХ холодная двадцатка популярных пародий.wav
Пиковый уровень 100.0 %     Скорость извлечения 9.9 X     Качество диапазона 100.0 %     CRC теста DDA28E35     CRC копии DDA28E35     Копирование... OK
Ошибок не произошло
Конец отчёта
==== Контрольная сумма отчёта 2F01E006D5EA0FA01197849EF5A54178268D24CB50FC284A2980C9EABB33B71F ====

Содержание индексной карты (.CUE)

REM GENRE "Punk Rock"REM DATE 2004REM DISCID 5710FA1AREM COMMENT "ExactAudioCopy v1.0b3"PERFORMER "Красная Плесень"TITLE "Союз ХХХ холодная двадцатка популярных пародий"FILE "Красная Плесень - Союз ХХХ холодная двадцатка популярных пародий.flac" WAVE  TRACK 01 AUDIO    TITLE "гр.Штурбанфюрер 'Бабушка Просковья'"    PERFORMER "Красная Плесень"    FLAGS DCP    INDEX 01 00:00:00  TRACK 02 AUDIO    TITLE "гр.Фруктоза 'Козавносе'"    PERFORMER "Красная Плесень"    FLAGS DCP    INDEX 00 02:37:01    INDEX 01 02:40:01  TRACK 03 AUDIO    TITLE "гр.Штурбанфюрер 'Утрений дозор'"    PERFORMER "Красная Плесень"    FLAGS DCP    INDEX 00 04:45:59    INDEX 01 04:48:59  TRACK 04 AUDIO    TITLE "гр.ПодаГра 'География'"    PERFORMER "Красная Плесень"    FLAGS DCP    INDEX 00 07:57:66    INDEX 01 08:00:66  TRACK 05 AUDIO    TITLE "Кутузов и гр.МАРС 'Дедушка'"    PERFORMER "Красная Плесень"    FLAGS DCP    INDEX 00 10:35:49    INDEX 01 10:38:49  TRACK 06 AUDIO    TITLE "гр.Дискотека Бавария 'Будулай'"    PERFORMER "Красная Плесень"    FLAGS DCP    INDEX 00 13:35:45    INDEX 01 13:38:45  TRACK 07 AUDIO    TITLE "РУСОтуристо 'Насморк'"    PERFORMER "Красная Плесень"    FLAGS DCP    INDEX 00 16:51:67    INDEX 01 16:54:67  TRACK 08 AUDIO    TITLE "гр.Животные 'Районы, карнизы'"    PERFORMER "Красная Плесень"    FLAGS DCP    INDEX 00 19:35:07    INDEX 01 19:38:07  TRACK 09 AUDIO    TITLE "гр.Ветки 'Мюнхенский дождь'"    PERFORMER "Красная Плесень"    FLAGS DCP    INDEX 00 22:46:44    INDEX 01 22:49:44  TRACK 10 AUDIO    TITLE "гр.Суфлекс 'Песня про всё'"    PERFORMER "Красная Плесень"    FLAGS DCP    INDEX 00 25:45:72    INDEX 01 25:48:72  TRACK 11 AUDIO    TITLE "Ладзэ 'Раздраженья больше нет'"    PERFORMER "Красная Плесень"    FLAGS DCP    INDEX 00 28:30:37    INDEX 01 28:33:37  TRACK 12 AUDIO    TITLE "гр.Дискотека Бавария 'Кто пописал на колонки?'"    PERFORMER "Красная Плесень"    FLAGS DCP    INDEX 00 31:35:13    INDEX 01 31:38:13  TRACK 13 AUDIO    TITLE "Серый 'Рыжая подруга'"    PERFORMER "Красная Плесень"    FLAGS DCP    INDEX 00 36:08:50    INDEX 01 36:11:50  TRACK 14 AUDIO    TITLE "Бабушки М.С 'Наш тусняк'"    PERFORMER "Красная Плесень"    FLAGS DCP    INDEX 00 38:13:74    INDEX 01 38:16:74  TRACK 15 AUDIO    TITLE "гр.Вожди 'Молодой плешивый'"    PERFORMER "Красная Плесень"    FLAGS DCP    INDEX 00 40:04:16    INDEX 01 40:07:16  TRACK 16 AUDIO    TITLE "Бабушки М.С 'Когда ухи мне целуешь'"    PERFORMER "Красная Плесень"    FLAGS DCP    INDEX 00 43:01:02    INDEX 01 43:04:02  TRACK 17 AUDIO    TITLE "Свистящие 'А я тут летала'"    PERFORMER "Красная Плесень"    FLAGS DCP    INDEX 00 45:00:69    INDEX 01 45:03:69  TRACK 18 AUDIO    TITLE "гр.Лагуна 'Ботаник на пляже-2'"    PERFORMER "Красная Плесень"    FLAGS DCP    INDEX 00 47:22:10    INDEX 01 47:25:10  TRACK 19 AUDIO    TITLE "гр.Пруд Ильзы 'Скрутило кишки'"    PERFORMER "Красная Плесень"    FLAGS DCP    INDEX 00 50:05:58    INDEX 01 50:08:58  TRACK 20 AUDIO    TITLE "гр.Обритые мошенники 'Стройбат'"    PERFORMER "Красная Плесень"    FLAGS DCP    INDEX 00 53:36:25    INDEX 01 53:39:25  TRACK 21 AUDIO    TITLE "Фабрика Грез №7 'Шоколадный глазик'"    PERFORMER "Красная Плесень"    FLAGS DCP    INDEX 00 56:59:20    INDEX 01 57:02:20  TRACK 22 AUDIO    TITLE "гр.Животные 'Все, что ко мне прилагается'"    PERFORMER "Красная Плесень"    FLAGS DCP    INDEX 00 59:42:61    INDEX 01 59:45:61  TRACK 23 AUDIO    TITLE "гр.Пропала Ганда 'Дрессировщица'"    PERFORMER "Красная Плесень"    FLAGS DCP    INDEX 00 61:29:72    INDEX 01 61:32:72  TRACK 24 AUDIO    TITLE "Серый 'Черный ЗАпор'"    PERFORMER "Красная Плесень"    FLAGS DCP    INDEX 00 64:14:00    INDEX 01 64:17:00  TRACK 25 AUDIO    TITLE "гр.Ветки 'Гадил под березой'"    PERFORMER "Красная Плесень"    FLAGS DCP    INDEX 00 67:01:46    INDEX 01 67:04:46  TRACK 26 AUDIO    TITLE "Смердючка & Фруктоза 'С женихом потела'"    PERFORMER "Красная Плесень"    FLAGS DCP    INDEX 00 69:58:50    INDEX 01 70:01:50
Яндекс.Метрика
Рейтинг@Mail.ru