(Punk-Rock / Pop) [CD] Красная Плесень - Союз популярных пародий 5.000.000 - 2007, FLAC (image+.cue), lossless

 

Создавать темы 01-Май-2015 20:24

Красная Плесень
Союз популярных пародий 5.000.000
Жанр: Punk-Rock / Pop
Носитель: CD
Страна-производитель диска (релиза): Russia
Год издания: 2007
Издатель (лейбл): Master Sound Ltd
Номер по каталогу: MS CD 619 / 05
Страна исполнителя (группы): Россия / Украина
Аудиокодек: FLAC (*.flac)
Тип рипа: image+.cue
Битрейт аудио: lossless
Продолжительность: 00:47:02
Источник (релизер): My Collection
Наличие сканов в содержимом раздачи: да

Треклист:

01. гр. Ветки - 26-й этаж (03:19)
02. Мармеладзэ - Привет,Верка (02:26)
03. Лилерия с песней Большой вертолет (02:19)
04. гр. Трактор-2 - Ты че ваще красавица... (03:47)
05. Иди ты Пьехо исполняет песню Ты храпиш (03:22)
06. гр. Бешеные бабки - В клубе танцы зажимансы (03:07)
07. Сериал Бригада-2 - Узбекский перевод (02:45)
08. гр. Дискотека Бавария - Суровый дед (02:26)
09. Crazy Fuck Dog - Хит №3 (02:21)
10. гр. Дискотека Бавария - Если хочешь нажраться (02:32)
11. ВИА Свистящие - Я прибью тебя (02:48)
12. гр. Трактор-2 - Колесо, бампер и любовь (03:25)
13. Мумий Трель - Прости, слониха-ха-ха (02:00)
14. Катя Дрель с песней Верчу, торчу (02:15)
15. Серый - Бой с тнями (Музыка к кинофильму) (02:04)
16. Братья Пилигримм - Брови (02:54)
17. Хит 2008 года (Неизданное из тайных сейфов шоу бизнеса) (03:16)

Лог создания рипа

Exact Audio Copy V1.0 beta 3 from 29. August 2011
Отчёт EAC об извлечении, выполненном 31. декабря 2014, 11:43
Красная Плесень / Союз популярных пародий 5.000.000
Дисковод: ATAPI   iHAS124   D   Adapter: 2  ID: 1
Режим чтения                 : ДостоверностьИспользование точного потока : ДаОтключение кэша аудио        : ДаИспользование указателей C2  : Нет
Коррекция смещения при чтении                     : 6Способность читать области Lead-in и Lead-out     : НетЗаполнение пропущенных сэмплов тишиной            : ДаУдаление блоков с тишиной в начале и конце        : НетПри вычислениях CRC использовались нулевые сэмплы : ДаИнтерфейс                                         : Встроенный Win32-интерфейс для Win NT/2000
Выходной формат          : Пользовательский кодировщикВыбранный битрейт        : 768 kBit/sКачество                 : ВысокийДобавление ID3-тега      : НетУтилита сжатия           : C:\Program Files (x86)\Exact Audio Copy\FLAC\FLAC.EXEДополнительные параметры : V -8 -T "Date=%year%" -T "Genre=%genre%" %source%
TOC извлечённого CD
Трек |   Старт  | Длительность | Начальный сектор | Конечный сектор    ---------------------------------------------------------------------       1  |  0:00.00 |    3:18.56   |           0      |      14905       2  |  3:18.56 |    2:25.25   |       14906      |      25805       3  |  5:44.06 |    2:18.25   |       25806      |      36180       4  |  8:02.31 |    3:47.07   |       36181      |      53212       5  | 11:49.38 |    3:21.45   |       53213      |      68332       6  | 15:11.08 |    3:07.13   |       68333      |      82370       7  | 18:18.21 |    2:44.44   |       82371      |      94714       8  | 21:02.65 |    2:25.43   |       94715      |     105632       9  | 23:28.33 |    2:20.63   |      105633      |     116195      10  | 25:49.21 |    2:31.44   |      116196      |     127564      11  | 28:20.65 |    2:47.65   |      127565      |     140154      12  | 31:08.55 |    3:24.51   |      140155      |     155505      13  | 34:33.31 |    1:59.70   |      155506      |     164500      14  | 36:33.26 |    2:15.18   |      164501      |     174643      15  | 38:48.44 |    2:03.74   |      174644      |     183942      16  | 40:52.43 |    2:53.28   |      183943      |     196945      17  | 43:45.71 |    3:16.13   |      196946      |     211658
Характеристики диапазона извлечения и сообщения об ошибках
Выбранный диапазон
Имя файла C:\Users\Temandroid\Desktop\Красная Плесень - Союз популярных пародий 5.000.000.wav
Пиковый уровень 100.0 %     Скорость извлечения 8.3 X     Качество диапазона 100.0 %     CRC теста 4269E923     CRC копии 4269E923     Копирование... OK
Ошибок не произошло
Конец отчёта
==== Контрольная сумма отчёта 243A0576DD209B25B11CBAA05EC7DE7B729BD254B1195986C2FD12CA4D17618E ====

Содержание индексной карты (.CUE)

REM GENRE "Punk Rock"REM DATE 2007REM DISCID B90B0611REM COMMENT "ExactAudioCopy v1.0b3"PERFORMER "Красная Плесень"TITLE "Союз популярных пародий 5.000.000"FILE "Красная Плесень - Союз популярных пародий 5.000.000.flac" WAVE  TRACK 01 AUDIO    TITLE "гр. Ветки - 26-й этаж"    PERFORMER "Красная Плесень"    FLAGS DCP    INDEX 01 00:00:00  TRACK 02 AUDIO    TITLE "Мармеладзэ - Привет,Верка"    PERFORMER "Красная Плесень"    FLAGS DCP    INDEX 00 03:16:56    INDEX 01 03:18:56  TRACK 03 AUDIO    TITLE "Лилерия с песней Большой вертолет"    PERFORMER "Красная Плесень"    FLAGS DCP    INDEX 00 05:42:06    INDEX 01 05:44:06  TRACK 04 AUDIO    TITLE "гр. Трактор-2 - Ты че ваще красавица..."    PERFORMER "Красная Плесень"    FLAGS DCP    INDEX 00 08:00:31    INDEX 01 08:02:31  TRACK 05 AUDIO    TITLE "Иди ты Пьехо исполняет песню Ты храпиш"    PERFORMER "Красная Плесень"    FLAGS DCP    INDEX 00 11:47:38    INDEX 01 11:49:38  TRACK 06 AUDIO    TITLE "гр. Бешеные бабки - В клубе танцы зажимансы"    PERFORMER "Красная Плесень"    FLAGS DCP    INDEX 00 15:09:08    INDEX 01 15:11:08  TRACK 07 AUDIO    TITLE "Сериал бригада-2 - Узбекский перевод"    PERFORMER "Красная Плесень"    FLAGS DCP    INDEX 00 18:16:21    INDEX 01 18:18:21  TRACK 08 AUDIO    TITLE "гр. Дискотека Бавария - Суровый дед"    PERFORMER "Красная Плесень"    FLAGS DCP    INDEX 00 21:00:65    INDEX 01 21:02:65  TRACK 09 AUDIO    TITLE "Crazy Fuck Dog - Хит №3"    PERFORMER "Красная Плесень"    FLAGS DCP    INDEX 00 23:26:33    INDEX 01 23:28:33  TRACK 10 AUDIO    TITLE "гр. Дискотека Бавария - Если хочешь нажраться"    PERFORMER "Красная Плесень"    FLAGS DCP    INDEX 00 25:47:21    INDEX 01 25:49:21  TRACK 11 AUDIO    TITLE "ВИА Свистящие - Я прибью тебя"    PERFORMER "Красная Плесень"    FLAGS DCP    INDEX 00 28:18:65    INDEX 01 28:20:65  TRACK 12 AUDIO    TITLE "гр. Трактор-2 - Колесо, бампер и любовь"    PERFORMER "Красная Плесень"    FLAGS DCP    INDEX 00 31:06:55    INDEX 01 31:08:55  TRACK 13 AUDIO    TITLE "Мумий Трель - Прости, слониха-ха-ха"    PERFORMER "Красная Плесень"    FLAGS DCP    INDEX 00 34:31:31    INDEX 01 34:33:31  TRACK 14 AUDIO    TITLE "Катя Дрель с песней Верчу, торчу"    PERFORMER "Красная Плесень"    FLAGS DCP    INDEX 00 36:31:26    INDEX 01 36:33:26  TRACK 15 AUDIO    TITLE "Серый - Бой с тнями (Музыка к кинофильму)"    PERFORMER "Красная Плесень"    FLAGS DCP    INDEX 00 38:46:44    INDEX 01 38:48:44  TRACK 16 AUDIO    TITLE "Братья Пилигримм - Брови"    PERFORMER "Красная Плесень"    FLAGS DCP    INDEX 00 40:50:43    INDEX 01 40:52:43  TRACK 17 AUDIO    TITLE "Хит 2008 года (Неизданное из тайных сейфов шоу бизнеса)"    PERFORMER "Красная Плесень"    FLAGS DCP    INDEX 00 43:43:71    INDEX 01 43:45:71
Яндекс.Метрика
Рейтинг@Mail.ru