(Punk-Rock / Pop) [CD] Красная Плесень - Союз популярных пародий 1.000.000 - 2005, FLAC (image+.cue), lossless

 

Создавать темы 01-Май-2015 20:21

Красная Плесень
Союз популярных пародий 1.000.000
Жанр: Punk-Rock / Pop
Носитель: CD
Страна-производитель диска (релиза): Russia
Год издания: 2005
Издатель (лейбл): Master Sound Ltd
Номер по каталогу: MS CD 588 / 05
Страна исполнителя (группы): Россия / Украина
Аудиокодек: FLAC (*.flac)
Тип рипа: image+.cue
Битрейт аудио: lossless
Продолжительность: 00:43:47
Источник (релизер): My Collection
Наличие сканов в содержимом раздачи: да

Треклист:

01. Академик Бибизинский - Пьяный на столе (03:58)
02. гр. Корневая система - Ты узнаешь Ыё (04:39)
03. В. Смердючка - Пук-пук-пук (03:13)
04. Чебурек (02:44)
05. Серый - Черный умер (02:52)
06. Фруктоза - Град идет (03:05)
07. К. Артакайдэ - Губки срантиком (02:36)
08. Какадышева - Зажималась я (03:01)
09. Катя Дрель - Сюси дрюси (01:02)
10. В мире зверьков (03:10)
11. Плачет девушка с автоматом (02:22)
12. Опера - Я голоден (02:42)
13. Румштайн - Берлин-Москоу (01:56)
14. Попала в .... пчела (02:45)
15. Ноги вниз - Нажрались (03:42)

Лог создания рипа

Exact Audio Copy V1.0 beta 3 from 29. August 2011
Отчёт EAC об извлечении, выполненном 2. января 2015, 9:41
Красная Плесень / Союз Популярных Пародий 1.000.000
Дисковод: ATAPI   iHAS124   D   Adapter: 2  ID: 1
Режим чтения                 : ДостоверностьИспользование точного потока : ДаОтключение кэша аудио        : ДаИспользование указателей C2  : Нет
Коррекция смещения при чтении                     : 6Способность читать области Lead-in и Lead-out     : НетЗаполнение пропущенных сэмплов тишиной            : ДаУдаление блоков с тишиной в начале и конце        : НетПри вычислениях CRC использовались нулевые сэмплы : ДаИнтерфейс                                         : Встроенный Win32-интерфейс для Win NT/2000
Выходной формат          : Пользовательский кодировщикВыбранный битрейт        : 768 kBit/sКачество                 : ВысокийДобавление ID3-тега      : НетУтилита сжатия           : C:\Program Files (x86)\Exact Audio Copy\FLAC\FLAC.EXEДополнительные параметры : V -8 -T "Date=%year%" -T "Genre=%genre%" %source%
TOC извлечённого CD
Трек |   Старт  | Длительность | Начальный сектор | Конечный сектор    ---------------------------------------------------------------------       1  |  0:00.00 |    0:40.61   |           0      |       3060       2  |  0:40.61 |    3:57.69   |        3061      |      20904       3  |  4:38.55 |    4:38.52   |       20905      |      41806       4  |  9:17.32 |    3:12.39   |       41807      |      56245       5  | 12:29.71 |    2:43.45   |       56246      |      68515       6  | 15:13.41 |    2:52.14   |       68516      |      81429       7  | 18:05.55 |    3:04.55   |       81430      |      95284       8  | 21:10.35 |    2:36.14   |       95285      |     106998       9  | 23:46.49 |    3:00.55   |      106999      |     120553      10  | 26:47.29 |    1:02.03   |      120554      |     125206      11  | 27:49.32 |    3:09.34   |      125207      |     139415      12  | 30:58.66 |    2:21.54   |      139416      |     150044      13  | 33:20.45 |    2:41.48   |      150045      |     162167      14  | 36:02.18 |    1:55.60   |      162168      |     170852      15  | 37:58.03 |    2:44.23   |      170853      |     183175      16  | 40:42.26 |    3:41.69   |      183176      |     199819
Характеристики диапазона извлечения и сообщения об ошибках
Выбранный диапазон
Имя файла C:\Users\Temandroid\Desktop\Красная Плесень - Союз Популярных Пародий 1.000.000.wav
Пиковый уровень 100.0 %     Скорость извлечения 3.1 X     Качество диапазона 99.9 %     CRC теста CA56E781     CRC копии CA56E781     Копирование... OK
Ошибок не произошло
Конец отчёта
==== Контрольная сумма отчёта 6A9CDDAA83D1F23038244D0F3D39B647CC16607925D505E3A58515720B2BE0BE ====

Содержание индексной карты (.CUE)

REM GENRE "Punk Rock"REM DATE 2005REM DISCID C50A6810REM COMMENT "ExactAudioCopy v1.0b3"PERFORMER "Красная Плесень"TITLE "Союз Популярных Пародий 1.000.000"FILE ".iso" BINARY  TRACK 01 MODEx/2xxx    TITLE "Академик Бибизинский - Пьяный на столе"    PERFORMER "Красная Плесень"FILE "Красная Плесень - Союз Популярных Пародий 1.000.000.flac" WAVE  TRACK 02 AUDIO    TITLE "Академик Бибизинский - Пьяный на столе"    PERFORMER "Красная Плесень"    FLAGS DCP    INDEX 01 00:00:00  TRACK 03 AUDIO    TITLE "гр. Корневая система - Ты узнаешь Ыё"    PERFORMER "Красная Плесень"    FLAGS DCP    INDEX 00 03:55:69    INDEX 01 03:57:69  TRACK 04 AUDIO    TITLE "В. Смердючка - Пук-пук-пук"    PERFORMER "Красная Плесень"    FLAGS DCP    INDEX 00 08:34:46    INDEX 01 08:36:46  TRACK 05 AUDIO    TITLE "Чебурек"    PERFORMER "Красная Плесень"    FLAGS DCP    INDEX 00 11:47:10    INDEX 01 11:49:10  TRACK 06 AUDIO    TITLE "Серый - Черный умер"    PERFORMER "Красная Плесень"    FLAGS DCP    INDEX 00 14:30:55    INDEX 01 14:32:55  TRACK 07 AUDIO    TITLE "Фруктоза - Град идет"    PERFORMER "Красная Плесень"    FLAGS DCP    INDEX 00 17:22:69    INDEX 01 17:24:69  TRACK 08 AUDIO    TITLE "К. Артакайдэ - Губки срантиком"    PERFORMER "Красная Плесень"    FLAGS DCP    INDEX 00 20:27:49    INDEX 01 20:29:49  TRACK 09 AUDIO    TITLE "Какадышева - Зажималась я"    PERFORMER "Красная Плесень"    FLAGS DCP    INDEX 00 23:03:63    INDEX 01 23:05:63  TRACK 10 AUDIO    TITLE "Катя Дрель - Сюси дрюси"    PERFORMER "Красная Плесень"    FLAGS DCP    INDEX 00 26:04:43    INDEX 01 26:06:43  TRACK 11 AUDIO    TITLE "В мире зверьков"    PERFORMER "Красная Плесень"    FLAGS DCP    INDEX 00 27:06:46    INDEX 01 27:08:46  TRACK 12 AUDIO    TITLE "Плачет девушка с автоматом"    PERFORMER "Красная Плесень"    FLAGS DCP    INDEX 00 30:16:05    INDEX 01 30:18:05  TRACK 13 AUDIO    TITLE "Опера - Я голоден"    PERFORMER "Красная Плесень"    FLAGS DCP    INDEX 00 32:37:59    INDEX 01 32:39:59  TRACK 14 AUDIO    TITLE "Румштайн - Берлин-Москоу"    PERFORMER "Красная Плесень"    FLAGS DCP    INDEX 00 35:19:32    INDEX 01 35:21:32  TRACK 15 AUDIO    TITLE "Попала в .... пчела"    PERFORMER "Красная Плесень"    FLAGS DCP    INDEX 00 37:15:17    INDEX 01 37:17:17  TRACK 16 AUDIO    TITLE "Ноги вниз - Нажрались"    PERFORMER "Красная Плесень"    FLAGS DCP    INDEX 00 39:59:40    INDEX 01 40:01:40
Яндекс.Метрика
Рейтинг@Mail.ru