(Punk-Rock) [CD] Красная Плесень - 46-й альбом - 2006, FLAC (image+.cue), lossless

 

Создавать темы 01-Май-2015 20:18

Красная Плесень - 46-й альбомЖанр: Punk-Rock
Носитель: CD
Страна-производитель диска (релиза): Russia
Год издания: 2006
Издатель (лейбл): Master Sound Ltd
Номер по каталогу: MS CD 695 / 06
Страна исполнителя (группы): Россия / Украина
Аудиокодек: FLAC (*.flac)
Тип рипа: image+.cue
Битрейт аудио: lossless
Продолжительность: 00:43:47
Источник (релизер): My Collection
Наличие сканов в содержимом раздачи: да

Треклист:

01. Красная Плесень (02:22)
02. На всё насрать (02:52)
03. Мы в сандалях (03:27)
04. Помои для тёщи (настоящая версия) (02:57)
05. Лифчики, трусы (02:28)
06. Рюмсштайн- Керосин (01:49)
07. ЭТО вкусней чем мороженое (02:42)
08. У Дурдома моего (02:57)
09. Fuckтор-3 (02:15)
10. На деревне весело (02:18)
11. Трактор-2 'Знакомство через ЧАТ' (03:24)
12. Вазелин (02:37)
13. Дрочюн (02:15)
14. Ёпсель-мопсель (02:59)
15. Вурдалачная ночь (04:13)
16. Тракторист я хоть куды (02:16)

Лог создания рипа

Exact Audio Copy V1.0 beta 3 from 29. August 2011
Отчёт EAC об извлечении, выполненном 3. января 2015, 19:53
Красная Плесень / 46-й альбом
Дисковод: ATAPI   iHAS124   D   Adapter: 2  ID: 1
Режим чтения                 : ДостоверностьИспользование точного потока : ДаОтключение кэша аудио        : ДаИспользование указателей C2  : Нет
Коррекция смещения при чтении                     : 6Способность читать области Lead-in и Lead-out     : НетЗаполнение пропущенных сэмплов тишиной            : ДаУдаление блоков с тишиной в начале и конце        : НетПри вычислениях CRC использовались нулевые сэмплы : ДаИнтерфейс                                         : Встроенный Win32-интерфейс для Win NT/2000
Выходной формат          : Пользовательский кодировщикВыбранный битрейт        : 768 kBit/sКачество                 : ВысокийДобавление ID3-тега      : НетУтилита сжатия           : C:\Program Files (x86)\Exact Audio Copy\FLAC\FLAC.EXEДополнительные параметры : V -8 -T "Date=%year%" -T "Genre=%genre%" %source%
TOC извлечённого CD
Трек |   Старт  | Длительность | Начальный сектор | Конечный сектор    ---------------------------------------------------------------------       1  |  0:00.00 |    2:22.22   |           0      |      10671       2  |  2:22.22 |    2:52.05   |       10672      |      23576       3  |  5:14.27 |    3:26.39   |       23577      |      39065       4  |  8:40.66 |    2:56.46   |       39066      |      52311       5  | 11:37.37 |    2:28.12   |       52312      |      63423       6  | 14:05.49 |    1:48.57   |       63424      |      71580       7  | 15:54.31 |    2:41.45   |       71581      |      83700       8  | 18:36.01 |    2:56.36   |       83701      |      96936       9  | 21:32.37 |    2:14.68   |       96937      |     107054      10  | 23:47.30 |    2:18.03   |      107055      |     117407      11  | 26:05.33 |    3:23.58   |      117408      |     132690      12  | 29:29.16 |    2:37.02   |      132691      |     144467      13  | 32:06.18 |    2:14.54   |      144468      |     154571      14  | 34:20.72 |    2:58.31   |      154572      |     167952      15  | 37:19.28 |    4:13.04   |      167953      |     186931      16  | 41:32.32 |    2:15.36   |      186932      |     197092      17  | 46:19.68 |    0:29.40   |      208493      |     210707
Характеристики диапазона извлечения и сообщения об ошибках
Выбранный диапазон
Имя файла C:\Users\Temandroid\Desktop\Новая папка\Красная Плесень - 46-й альбом.wav
Пиковый уровень 98.8 %     Скорость извлечения 8.1 X     Качество диапазона 100.0 %     CRC теста CC84F8AC     CRC копии CC84F8AC     Копирование... OK
Ошибок не произошло
Конец отчёта
==== Контрольная сумма отчёта A9BBC9B037E8CBDF603679691FBB39FB5F6D8AAED0F600FB973D5502AF76F3B8 ====

Содержание индексной карты (.CUE)

REM GENRE "Punk Rock"REM DATE 2006REM DISCID F70AF911REM COMMENT "ExactAudioCopy v1.0b3"PERFORMER "Красная Плесень"TITLE "46-й альбом"FILE "Красная Плесень - 46-й альбом.flac" WAVE  TRACK 01 AUDIO    TITLE "Красная Плесень"    PERFORMER "Красная Плесень"    INDEX 01 00:00:00  TRACK 02 AUDIO    TITLE "На всё насрать"    PERFORMER "Красная Плесень"    INDEX 01 02:22:22  TRACK 03 AUDIO    TITLE "Мы в сандалях"    PERFORMER "Красная Плесень"    INDEX 01 05:14:27  TRACK 04 AUDIO    TITLE "Помои для тёщи (настоящая версия)"    PERFORMER "Красная Плесень"    INDEX 01 08:40:66  TRACK 05 AUDIO    TITLE "Лифчики, трусы"    PERFORMER "Красная Плесень"    INDEX 01 11:37:37  TRACK 06 AUDIO    TITLE "Рюмсштайн- Керосин"    PERFORMER "Красная Плесень"    INDEX 01 14:05:49  TRACK 07 AUDIO    TITLE "ЭТО вкусней чем мороженое"    PERFORMER "Красная Плесень"    INDEX 01 15:54:31  TRACK 08 AUDIO    TITLE "У Дурдома моего"    PERFORMER "Красная Плесень"    INDEX 01 18:36:01  TRACK 09 AUDIO    TITLE "Fuckтор-3"    PERFORMER "Красная Плесень"    INDEX 01 21:32:37  TRACK 10 AUDIO    TITLE "На деревне весело"    PERFORMER "Красная Плесень"    INDEX 01 23:47:30  TRACK 11 AUDIO    TITLE "Трактор-2 'Знакомство через ЧАТ'"    PERFORMER "Красная Плесень"    INDEX 01 26:05:33  TRACK 12 AUDIO    TITLE "Вазелин"    PERFORMER "Красная Плесень"    INDEX 01 29:29:16  TRACK 13 AUDIO    TITLE "Дрочюн"    PERFORMER "Красная Плесень"    INDEX 01 32:06:18  TRACK 14 AUDIO    TITLE "Ёпсель-мопсель"    PERFORMER "Красная Плесень"    INDEX 01 34:20:72  TRACK 15 AUDIO    TITLE "Вурдалачная ночь"    PERFORMER "Красная Плесень"    INDEX 01 37:19:28  TRACK 16 AUDIO    TITLE "Тракторист я хоть куды"    PERFORMER "Красная Плесень"    INDEX 01 41:32:32
Яндекс.Метрика
Рейтинг@Mail.ru