(Punk-Rock) [CD] Красная Плесень - Керосин - 2008, FLAC (image+.cue), lossless

 

Создавать темы 01-Май-2015 20:16

Красная Плесень - Керосин
Жанр: Punk-Rock
Носитель: CD
Страна-производитель диска (релиза): Russia
Год издания: 2008
Издатель (лейбл): Master Sound Ltd
Номер по каталогу: MS CD 767 / 08
Страна исполнителя (группы): Россия / Украина
Аудиокодек: FLAC (*.flac)
Тип рипа: image+.cue
Битрейт аудио: lossless
Продолжительность: 00:53:18
Источник (релизер): My Collection
Наличие сканов в содержимом раздачи: да

Треклист:

01. Вступление (01:48)
02. Газы (02:32)
03. Деревенский рай (02:45)
04. Песня о спорте (02:00)
05. Горели поля (01:39)
06. Индеец и турист (02:06)
07. Фоер (01:19)
08. Археологи (02:45)
09. Рецепт вареникоФ (02:47)
10. ГАИшник (02:54)
11. Как то с города (02:55)
12. Кока-Ин (01:32)
13. Партизан (03:25)
14. Сборная команда 4-го Дурдома (02:22)
15. Мальчиш 375 (02:32)
16. Буча мамба (02:23)
17. Медкомиссия (03:14)
18. Концовка (01:38)
19. Фролов-ДМБ (05:56)
20. Пираты (бонус) (04:51)

Лог создания рипа

Exact Audio Copy V1.0 beta 3 from 29. August 2011
Отчёт EAC об извлечении, выполненном 4. января 2015, 13:52
Красная Плесень / Керосин
Дисковод: ATAPI   iHAS124   D   Adapter: 2  ID: 1
Режим чтения                 : ДостоверностьИспользование точного потока : ДаОтключение кэша аудио        : ДаИспользование указателей C2  : Нет
Коррекция смещения при чтении                     : 6Способность читать области Lead-in и Lead-out     : НетЗаполнение пропущенных сэмплов тишиной            : ДаУдаление блоков с тишиной в начале и конце        : НетПри вычислениях CRC использовались нулевые сэмплы : ДаИнтерфейс                                         : Встроенный Win32-интерфейс для Win NT/2000
Выходной формат          : Пользовательский кодировщикВыбранный битрейт        : 768 kBit/sКачество                 : ВысокийДобавление ID3-тега      : НетУтилита сжатия           : C:\Program Files (x86)\Exact Audio Copy\FLAC\FLAC.EXEДополнительные параметры : V -8 -T "Date=%year%" -T "Genre=%genre%" %source%
TOC извлечённого CD
Трек |   Старт  | Длительность | Начальный сектор | Конечный сектор    ---------------------------------------------------------------------       1  |  0:00.00 |    1:47.50   |           0      |       8074       2  |  1:47.50 |    2:31.48   |        8075      |      19447       3  |  4:19.23 |    2:44.40   |       19448      |      31787       4  |  7:03.63 |    2:00.18   |       31788      |      40805       5  |  9:04.06 |    1:38.64   |       40806      |      48219       6  | 10:42.70 |    2:05.58   |       48220      |      57652       7  | 12:48.53 |    1:18.45   |       57653      |      63547       8  | 14:07.23 |    2:44.65   |       63548      |      75912       9  | 16:52.13 |    2:47.08   |       75913      |      88445      10  | 19:39.21 |    2:53.44   |       88446      |     101464      11  | 22:32.65 |    2:54.66   |      101465      |     114580      12  | 25:27.56 |    1:31.47   |      114581      |     121452      13  | 26:59.28 |    3:25.14   |      121453      |     136841      14  | 30:24.42 |    2:22.02   |      136842      |     147493      15  | 32:46.44 |    2:31.60   |      147494      |     158878      16  | 35:18.29 |    2:22.71   |      158879      |     169599      17  | 37:41.25 |    3:13.43   |      169600      |     184117      18  | 40:54.68 |    1:37.46   |      184118      |     191438      19  | 42:32.39 |    5:55.28   |      191439      |     218091      20  | 48:27.67 |    4:50.29   |      218092      |     239870
Характеристики диапазона извлечения и сообщения об ошибках
Выбранный диапазон
Имя файла C:\Users\Temandroid\Desktop\Красная Плесень - Керосин.wav
Пиковый уровень 98.8 %     Скорость извлечения 8.6 X     Качество диапазона 100.0 %     CRC теста FC58F22B     CRC копии FC58F22B     Копирование... OK
Ошибок не произошло
Конец отчёта
==== Контрольная сумма отчёта 39DA4657740A40AAAD59C68D4CAF06654AC9C21790D4A1106FC30ECF4575957A ====

Содержание индексной карты (.CUE)

REM GENRE "Punk Rock"REM DATE 2008REM DISCID 0A0C7E14REM COMMENT "ExactAudioCopy v1.0b3"PERFORMER "Красная Плесень"TITLE "Керосин"FILE "Красная Плесень - Керосин.flac" WAVE  TRACK 01 AUDIO    TITLE "Вступление"    PERFORMER "Красная Плесень"    INDEX 01 00:00:00  TRACK 02 AUDIO    TITLE "Газы"    PERFORMER "Красная Плесень"    INDEX 00 01:45:50    INDEX 01 01:47:50  TRACK 03 AUDIO    TITLE "Деревенский рай"    PERFORMER "Красная Плесень"    INDEX 00 04:17:23    INDEX 01 04:19:23  TRACK 04 AUDIO    TITLE "Песня о спорте"    PERFORMER "Красная Плесень"    INDEX 00 07:01:63    INDEX 01 07:03:63  TRACK 05 AUDIO    TITLE "Горели поля"    PERFORMER "Красная Плесень"    INDEX 00 09:02:06    INDEX 01 09:04:06  TRACK 06 AUDIO    TITLE "Индеец и турист"    PERFORMER "Красная Плесень"    INDEX 00 10:40:70    INDEX 01 10:42:70  TRACK 07 AUDIO    TITLE "Фоер"    PERFORMER "Красная Плесень"    INDEX 00 12:46:53    INDEX 01 12:48:53  TRACK 08 AUDIO    TITLE "Археологи"    PERFORMER "Красная Плесень"    INDEX 00 14:05:23    INDEX 01 14:07:23  TRACK 09 AUDIO    TITLE "Рецепт вареникоФ"    PERFORMER "Красная Плесень"    INDEX 00 16:50:13    INDEX 01 16:52:13  TRACK 10 AUDIO    TITLE "ГАИшник"    PERFORMER "Красная Плесень"    INDEX 00 19:37:21    INDEX 01 19:39:21  TRACK 11 AUDIO    TITLE "Как то с города"    PERFORMER "Красная Плесень"    INDEX 00 22:30:65    INDEX 01 22:32:65  TRACK 12 AUDIO    TITLE "Кока-Ин"    PERFORMER "Красная Плесень"    INDEX 00 25:25:56    INDEX 01 25:27:56  TRACK 13 AUDIO    TITLE "Партизан"    PERFORMER "Красная Плесень"    INDEX 00 26:57:28    INDEX 01 26:59:28  TRACK 14 AUDIO    TITLE "Сборная команда 4-го Дурдома"    PERFORMER "Красная Плесень"    INDEX 00 30:22:42    INDEX 01 30:24:42  TRACK 15 AUDIO    TITLE "Мальчиш 375"    PERFORMER "Красная Плесень"    INDEX 00 32:44:44    INDEX 01 32:46:44  TRACK 16 AUDIO    TITLE "Буча мамба"    PERFORMER "Красная Плесень"    INDEX 00 35:16:29    INDEX 01 35:18:29  TRACK 17 AUDIO    TITLE "Медкомиссия"    PERFORMER "Красная Плесень"    INDEX 00 37:39:25    INDEX 01 37:41:25  TRACK 18 AUDIO    TITLE "Концовка"    PERFORMER "Красная Плесень"    INDEX 00 40:52:68    INDEX 01 40:54:68  TRACK 19 AUDIO    TITLE "Фролов-ДМБ"    PERFORMER "Красная Плесень"    INDEX 00 42:30:39    INDEX 01 42:32:39  TRACK 20 AUDIO    TITLE "Пираты (бонус)"    PERFORMER "Красная Плесень"    INDEX 00 48:25:67    INDEX 01 48:27:67
Яндекс.Метрика
Рейтинг@Mail.ru