(Punk-Rock / Pop) [CD] Красная Плесень Союз популярных пародий 16.000.000 - 2006, FLAC (image+.cue), lossless

 

Создавать темы 01-Май-2015 20:14

Красная Плесень -
Союз популярных пародий 16.000.000
Жанр: Punk-Rock / Pop
Носитель: CD
Страна-производитель диска (релиза): Russia
Год издания: 2006
Издатель (лейбл): Master Sound Ltd
Номер по каталогу: MS CD 646 / 06
Страна исполнителя (группы): Россия / Украина
Аудиокодек: FLAC (*.flac)
Тип рипа: image+.cue
Битрейт аудио: lossless
Продолжительность: (00:42:28
Источник (релизер): My Collection
Наличие сканов в содержимом раздачи: да

Треклист:

01. гр. Свистящие и Ах!! Раш - Восточные смазки (03:08)
02. Индеец (Черные глазЫЫ) (02:55)
03. Коринна - Белые парусники (02:19)
04. Свердючка - Я попала на грабли (02:57)
05. Невиновата-я-йя (01:57)
06. гр. Дискотека БАвария - Ну и складно (02:19)
07. гр. Каблучки - Маленькая вонючка (01:57)
08. гр. Животные - Рома, извини, дела (02:10)
09. гр. О-Е - Мелодия свистка (02:21)
10. Сахароза - Полный попец (02:03)
11. Свердючка - Свекровь вам не трали вали (02:25)
12. гр. Штурбанфюрер - Пенис большой (02:56)
13. Серый - Птичья малярия (02:07)
14. Каричневые глазы (По заказу Грын Писс) (03:28)
15. Брильянтовая нога (02:45)
16. гр. Отбой & бабушка Карына - Елка в феврале (02:44)
17. ВИА Пода-Гра - Лучшие друзья девушек - это имплантанты (02:00)

Лог создания рипа

Exact Audio Copy V1.0 beta 3 from 29. August 2011
Отчёт EAC об извлечении, выполненном 2. января 2015, 10:55
Красная Плесень / Союз популярных пародий  16.000.000
Дисковод: ATAPI   iHAS124   D   Adapter: 2  ID: 1
Режим чтения                 : ДостоверностьИспользование точного потока : ДаОтключение кэша аудио        : ДаИспользование указателей C2  : Нет
Коррекция смещения при чтении                     : 6Способность читать области Lead-in и Lead-out     : НетЗаполнение пропущенных сэмплов тишиной            : ДаУдаление блоков с тишиной в начале и конце        : НетПри вычислениях CRC использовались нулевые сэмплы : ДаИнтерфейс                                         : Встроенный Win32-интерфейс для Win NT/2000
Выходной формат          : Пользовательский кодировщикВыбранный битрейт        : 768 kBit/sКачество                 : ВысокийДобавление ID3-тега      : НетУтилита сжатия           : C:\Program Files (x86)\Exact Audio Copy\FLAC\FLAC.EXEДополнительные параметры : V -8 -T "Date=%year%" -T "Genre=%genre%" %source%
TOC извлечённого CD
Трек |   Старт  | Длительность | Начальный сектор | Конечный сектор    ---------------------------------------------------------------------       1  |  0:00.00 |    3:07.65   |           0      |      14089       2  |  3:07.65 |    2:54.34   |       14090      |      27173       3  |  6:02.24 |    2:18.39   |       27174      |      37562       4  |  8:20.63 |    2:56.56   |       37563      |      50818       5  | 11:17.44 |    1:57.26   |       50819      |      59619       6  | 13:14.70 |    2:18.57   |       59620      |      70026       7  | 15:33.52 |    1:57.13   |       70027      |      78814       8  | 17:30.65 |    2:10.20   |       78815      |      88584       9  | 19:41.10 |    2:20.65   |       88585      |      99149      10  | 22:02.00 |    2:02.54   |       99150      |     108353      11  | 24:04.54 |    2:25.09   |      108354      |     119237      12  | 26:29.63 |    2:55.52   |      119238      |     132414      13  | 29:25.40 |    2:06.42   |      132415      |     141906      14  | 31:32.07 |    3:28.01   |      141907      |     157507      15  | 35:00.08 |    2:44.69   |      157508      |     169876      16  | 37:45.02 |    2:43.62   |      169877      |     182163      17  | 40:28.64 |    1:59.62   |      182164      |     191150
Характеристики диапазона извлечения и сообщения об ошибках
Выбранный диапазон
Имя файла C:\Users\Temandroid\Desktop\Красная Плесень - Союз популярных пародий  16.000.000.wav
Пиковый уровень 100.0 %     Скорость извлечения 2.9 X     Качество диапазона 100.0 %     CRC теста BA6E50AF     CRC копии BA6E50AF     Копирование... OK
Ошибок не произошло
Конец отчёта
==== Контрольная сумма отчёта 0A855F3C7C0269309F5FB1F8991FCC4A551A9AD3A8ABF3A706A078EACB8945EC ====

Содержание индексной карты (.CUE)

REM GENRE "Punk Rock"REM DATE 2006REM DISCID ED09F411REM COMMENT "ExactAudioCopy v1.0b3"PERFORMER "Красная Плесень"TITLE "Союз популярных пародий  16.000.000"FILE "Красная Плесень - Союз популярных пародий  16.000.000.flac" WAVE  TRACK 01 AUDIO    TITLE "гр. Свистящие и Ах!! Раш - Восточные Смазки"    PERFORMER "Красная Плесень"    INDEX 01 00:00:00  TRACK 02 AUDIO    TITLE "Индеец (Черные глазЫЫ)"    PERFORMER "Красная Плесень"    INDEX 01 03:07:65  TRACK 03 AUDIO    TITLE "Коринна - Белые Парусники"    PERFORMER "Красная Плесень"    INDEX 01 06:02:24  TRACK 04 AUDIO    TITLE "Свердючка - Я опала На Грабли"    PERFORMER "Красная Плесень"    INDEX 01 08:20:63  TRACK 05 AUDIO    TITLE "Невиновата-я-йя"    PERFORMER "Красная Плесень"    INDEX 01 11:17:44  TRACK 06 AUDIO    TITLE "гр. Дискотека БАвария - Ну и складно"    PERFORMER "Красная Плесень"    INDEX 01 13:14:70  TRACK 07 AUDIO    TITLE "гр. Каблучки - Маленькая Вонючка"    PERFORMER "Красная Плесень"    INDEX 01 15:33:52  TRACK 08 AUDIO    TITLE "гр. Животные - Рома, извини, дела"    PERFORMER "Красная Плесень"    INDEX 01 17:30:65  TRACK 09 AUDIO    TITLE "гр. О-Е - Мелодия Свистка"    PERFORMER "Красная Плесень"    INDEX 01 19:41:10  TRACK 10 AUDIO    TITLE "Сахароза - Полный попец"    PERFORMER "Красная Плесень"    INDEX 01 22:02:00  TRACK 11 AUDIO    TITLE "Свердючка - Свекровь вам не трали вали"    PERFORMER "Красная Плесень"    INDEX 01 24:04:54  TRACK 12 AUDIO    TITLE "гр. Штурбанфюрер - Пенис Большой"    PERFORMER "Красная Плесень"    INDEX 01 26:29:63  TRACK 13 AUDIO    TITLE "Серый - Птичья Малярия"    PERFORMER "Красная Плесень"    INDEX 01 29:25:40  TRACK 14 AUDIO    TITLE "Каричневые глазы (По заказу Грын Писс)"    PERFORMER "Красная Плесень"    INDEX 01 31:32:07  TRACK 15 AUDIO    TITLE "Брильянтовая Нога"    PERFORMER "Красная Плесень"    INDEX 01 35:00:08  TRACK 16 AUDIO    TITLE "гр. Отбой & бабушка Карына - Елка в Феврале"    PERFORMER "Красная Плесень"    INDEX 01 37:45:02  TRACK 17 AUDIO    TITLE "ВИА Пода-Гра - Лучшие друзья девушек - это имплантанты"    PERFORMER "Красная Плесень"    INDEX 01 40:28:64
Яндекс.Метрика
Рейтинг@Mail.ru