(Rock) [CD] Красная Плесень - Баллады и лирика - 1997, FLAC (image+.cue), lossless

 

Создавать темы 01-Май-2015 19:55

Красная Плесень / Баллады и лирика Жанр: Rock
Носитель: CD
Страна-производитель диска (релиза): Sweden
Год издания: 1997
Издатель (лейбл): Master Sound
Номер по каталогу: MS 126
Страна исполнителя (группы): Россия / Украина
Аудиокодек: FLAC (*.flac)
Тип рипа: image+.cue
Битрейт аудио: lossless
Продолжительность: 46:43
Источник (релизер): Собственный диск
Наличие сканов в содержимом раздачи: да
Треклист:
01. Мир абстрактных иллюзий
02. Свинцовый туман
03. На землю капает дождь
04. Ржавое Солнце
05. Мама
06. Последняя любовь
07. Белокурая девчонка
08. Ты пойми
09. Стимул жизни
10. Караоке

Лог создания рипа

Exact Audio Copy V1.0 beta 4 from 7. December 2014
Отчёт EAC об извлечении, выполненном 4. апреля 2015, 18:39
Красная Плесень / Лирика
Дисковод: SlimtypeDVD A  DS8A5SH   Adapter: 1  ID: 0
Режим чтения                 : ДостоверностьИспользование точного потока : ДаОтключение кэша аудио        : ДаИспользование указателей C2  : Нет
Коррекция смещения при чтении                     : 6Способность читать области Lead-in и Lead-out     : НетЗаполнение пропущенных сэмплов тишиной            : ДаУдаление блоков с тишиной в начале и конце        : НетПри вычислениях CRC использовались нулевые сэмплы : ДаИнтерфейс                                         : Встроенный Win32-интерфейс для Win NT/2000
Выходной формат          : Пользовательский кодировщикВыбранный битрейт        : 128 kBit/sКачество                 : ВысокийДобавление ID3-тега      : НетУтилита сжатия           : C:\Program Files (x86)\FLAC Frontend\FLAC frontend-NET40.exeДополнительные параметры : -V -8 -T "Date=%year%" -T "Genre=%genre%" %source%
TOC извлечённого CD
Трек |   Старт  | Длительность | Начальный сектор | Конечный сектор    ---------------------------------------------------------------------       1  |  0:00.55 |    3:55.00   |          55      |      17679       2  |  3:55.55 |    3:04.02   |       17680      |      31481       3  |  6:59.57 |    4:38.58   |       31482      |      52389       4  | 11:38.40 |    4:09.45   |       52390      |      71109       5  | 15:48.10 |    4:18.05   |       71110      |      90464       6  | 20:06.15 |    5:23.42   |       90465      |     114731       7  | 25:29.57 |    5:26.63   |      114732      |     139244       8  | 30:56.45 |    5:19.00   |      139245      |     163169       9  | 36:15.45 |    5:03.45   |      163170      |     185939      10  | 41:19.15 |    5:22.40   |      185940      |     210129
Характеристики диапазона извлечения и сообщения об ошибках
Выбранный диапазон
Имя файла D:\Красная Плесень - Лирика (1997)\Красная Плесень - Лирика.wav
Пиковый уровень 89.9 %     Скорость извлечения 1.7 X     Качество диапазона 99.9 %     CRC теста 5A1437CD     CRC копии 5A1437CD     Копирование... OK
Ошибок не произошло
AccurateRip: сводка
Трек  1  : извлечено точно (доверие 2)  [78DC9F65]  (AR v1)Трек  2  : извлечено точно (доверие 2)  [D0D19876]  (AR v1)Трек  3  : извлечено точно (доверие 2)  [F403A40C]  (AR v1)Трек  4  : извлечено точно (доверие 2)  [22C42FDC]  (AR v1)Трек  5  : извлечено точно (доверие 2)  [D242ACF9]  (AR v1)Трек  6  : извлечено точно (доверие 2)  [AF8AD7AE]  (AR v1)Трек  7  : извлечено точно (доверие 2)  [2456C6C1]  (AR v1)Трек  8  : извлечено точно (доверие 2)  [5082A835]  (AR v1)Трек  9  : извлечено точно (доверие 2)  [62ADD9BA]  (AR v1)Трек 10  : извлечено точно (доверие 2)  [954DFC22]  (AR v1)
Все треки извлечены точно
Конец отчёта
==== Контрольная сумма отчёта F6F0BA71D3E91F766E44179894B3E37681FB5D1222D49CB195BE342F2F41A5E7 ====
[/spoiler][spoiler="Содержание индексной карты (.CUE)"]
REM GENRE PunkREM DATE 1997REM DISCID 750AF10AREM COMMENT "ExactAudioCopy v1.0b4"PERFORMER "Красная Плесень"TITLE "Лирика"FILE "Красная Плесень - Лирика.flac" WAVE  TRACK 01 AUDIO    TITLE "Мир Абстрактных Иллюзий"    PERFORMER "Красная Плесень"    INDEX 00 00:00:00    INDEX 01 00:00:55  TRACK 02 AUDIO    TITLE "Свинцовый Туман"    PERFORMER "Красная Плесень"    INDEX 00 03:54:20    INDEX 01 03:55:55  TRACK 03 AUDIO    TITLE "На Землю Капает Дождь"    PERFORMER "Красная Плесень"    INDEX 00 06:58:22    INDEX 01 06:59:57  TRACK 04 AUDIO    TITLE "Ржавое Солнце"    PERFORMER "Красная Плесень"    INDEX 00 11:37:05    INDEX 01 11:38:40  TRACK 05 AUDIO    TITLE "Мама"    PERFORMER "Красная Плесень"    INDEX 00 15:46:50    INDEX 01 15:48:10  TRACK 06 AUDIO    TITLE "Последняя Любовь"    PERFORMER "Красная Плесень"    INDEX 00 20:04:55    INDEX 01 20:06:15  TRACK 07 AUDIO    TITLE "Белокурая Девчонка"    PERFORMER "Красная Плесень"    INDEX 00 25:28:22    INDEX 01 25:29:57  TRACK 08 AUDIO    TITLE "Ты Пойми"    PERFORMER "Красная Плесень"    INDEX 00 30:55:10    INDEX 01 30:56:45  TRACK 09 AUDIO    TITLE "Стимул Жизни"    PERFORMER "Красная Плесень"    INDEX 00 36:14:10    INDEX 01 36:15:45  TRACK 10 AUDIO    TITLE "Караоке"    PERFORMER "Красная Плесень"    INDEX 00 41:17:55    INDEX 01 41:19:15
Яндекс.Метрика
Рейтинг@Mail.ru