(Punk, Rock, Pop, Parody) [CD] Красная Плесень - 4 CD - 1997-2012, FLAC (image+.cue), lossless

 

Создавать темы 01-Май-2015 19:34

Жанр: Punk, Rock, Pop, Parody
Носитель: CD
Страна-производитель диска (релиза): Швеция, Россия
Год издания: 1997-2012
Страна исполнителя (группы): СССР, Россия
Аудиокодек: FLAC (*.flac)
Тип рипа: image+.cue
Битрейт аудио: lossless

1997 - Профессор Бибизинский и "Китайский размер тапок" (Швеция)

Страна-производитель диска: Швеция
Год издания: 1997
Издатель (лейбл): студия "Красная Плесень"
Продолжительность: 01:03:09
Наличие сканов в содержимом раздачи: да
Треклист:
01. Я хороший хлопэць [5:07]
02. Синие сандалии [4:20]
03. Директор школы [4:08]
04. Вечный бой [3:07]
05. Вчера [3:34]
06. Кан тугэза [5:12]
07. Гагарин [3:39]
08. Муха [3:03]
09. На дискотеку сельскую [5:13]
10. Рецепт щей [2:43]
11. Пьяный ёжик [6:32]
12. Свинья [2:32]
13. Тихо в лесу [4:01]
14. Подбей косую [4:54]
15. Клиническая смерть [5:05]

Лог создания рипа

Exact Audio Copy V1.0 beta 3 from 29. August 2011
Отчёт EAC об извлечении, выполненном 28. января 2013, 18:43
Красная Плесень / Профессор Бибизинский и Китайский размер тапок
Дисковод: MATSHITADVD-RAM UJ8B0 Adapter: 0 ID: 1
Режим чтения : ДостоверностьИспользование точного потока : ДаОтключение кэша аудио : ДаИспользование указателей C2 : Нет
Коррекция смещения при чтении : 102Способность читать области Lead-in и Lead-out : НетЗаполнение пропущенных сэмплов тишиной : ДаУдаление блоков с тишиной в начале и конце : НетПри вычислениях CRC использовались нулевые сэмплы : ДаИнтерфейс : Встроенный Win32-интерфейс для Win NT/2000
Выходной формат : Пользовательский кодировщикВыбранный битрейт : 128 kBit/sКачество : ВысокийДобавление ID3-тега : НетУтилита сжатия : C:\Program Files (x86)\Exact Audio Copy\Flac\flac.exeДополнительные параметры : -V -8 -T "Date=%year%" -T "Genre=%genre%" %source%
TOC извлечённого CD
Трек | Старт | Длительность | Начальный сектор | Конечный сектор --------------------------------------------------------------------- 1 | 0:00.00 | 5:07.25 | 0 | 23049 2 | 5:07.25 | 4:19.65 | 23050 | 42539 3 | 9:27.15 | 4:08.05 | 42540 | 61144 4 | 13:35.20 | 3:07.00 | 61145 | 75169 5 | 16:42.20 | 3:33.60 | 75170 | 91204 6 | 20:16.05 | 5:11.40 | 91205 | 114569 7 | 25:27.45 | 3:39.05 | 114570 | 130999 8 | 29:06.50 | 3:02.55 | 131000 | 144704 9 | 32:09.30 | 5:13.30 | 144705 | 168209 10 | 37:22.60 | 2:43.00 | 168210 | 180434 11 | 40:05.60 | 6:31.70 | 180435 | 209829 12 | 46:37.55 | 2:31.45 | 209830 | 221199 13 | 49:09.25 | 4:01.20 | 221200 | 239294 14 | 53:10.45 | 4:53.55 | 239295 | 261324 15 | 58:04.25 | 5:05.05 | 261325 | 284204
Характеристики диапазона извлечения и сообщения об ошибках
Выбранный диапазон
Имя файла D:\Music\Красная Плесень\Красная Плесень - Профессор Бибизинский и Китайский размер тапок.wav
Пиковый уровень 99.5 % Скорость извлечения 2.0 X Качество диапазона 100.0 % CRC теста 17DA36D7 CRC копии 17DA36D7 Копирование... OK
Ошибок не произошло
AccurateRip: сводка
Трек 1 точность не определена (достоверность 1) [E10281EA], AccurateRip вернул [F6706557] (AR v2)Трек 2 точность не определена (достоверность 1) [E78A6FD4], AccurateRip вернул [A92D7AE0] (AR v2)Трек 3 точность не определена (достоверность 1) [98EC1046], AccurateRip вернул [99BB24EB] (AR v2)Трек 4 точность не определена (достоверность 1) [7DC3C363], AccurateRip вернул [DAE90209] (AR v2)Трек 5 точность не определена (достоверность 1) [7CCE1733], AccurateRip вернул [9A335D24] (AR v2)Трек 6 точность не определена (достоверность 1) [34607C51], AccurateRip вернул [97702FA8] (AR v2)Трек 7 точность не определена (достоверность 1) [A9546F96], AccurateRip вернул [1B8A3A3C] (AR v2)Трек 8 точность не определена (достоверность 1) [417A1B23], AccurateRip вернул [5D65542F] (AR v2)Трек 9 точность не определена (достоверность 1) [63DF9A6B], AccurateRip вернул [DB6A090E] (AR v2)Трек 10 точность не определена (достоверность 1) [3C04C4E8], AccurateRip вернул [54D3E498] (AR v2)Трек 11 точность не определена (достоверность 1) [6859AC37], AccurateRip вернул [D1FE011B] (AR v2)Трек 12 точность не определена (достоверность 1) [D814A92E], AccurateRip вернул [1DE868A1] (AR v2)Трек 13 точность не определена (достоверность 1) [1EE119AE], AccurateRip вернул [69494703] (AR v2)Трек 14 точность не определена (достоверность 1) [A25F0C21], AccurateRip вернул [64854EDA] (AR v2)Трек 15 точность не определена (достоверность 1) [95FD395C], AccurateRip вернул [6EF13AF3] (AR v2)
Ни один трек не прошёл проверки на точностьВ вашей базе может быть иной вариант штамповки диска
Конец отчёта
==== Контрольная сумма отчёта 81A5CAC8FC8C3D123CE16041C0ABAF6CEE8EDA012B54E7ED253B83F3143DC50B ====

Лог проверки качества

-----------------------
DON'T MODIFY THIS FILE
-----------------------
PERFORMER: auCDtect Task Manager, ver. 1.6.0 RC1 build 1.6.0.1Copyright (c) 2008-2010 y-soft. All rights reservedhttp://y-soft.org
ANALYZER: auCDtect: CD records authenticity detector, version 0.8.2Copyright (c) 2004 Oleg Berngardt. All rights reserved.Copyright (c) 2004 Alexander Djourik. All rights reserved.
FILE: Красная Плесень - Профессор Бибизинский и Китайский размер тапок.flac Size: 430736331 Hash: 9F9B35E9DAA8394D9042AEC4F5DE223F Accuracy: -m0 Conclusion: CDDA 100% Signature: F80926E9AC444B567587BC643FAAB78305E58D9D

Скриншот спектра частот

2001 - Приключения Красной Шапочки (Россия)

Страна-производитель диска: Россия
Год издания: 2001
Издатель (лейбл): Master Sound Records
Номер по каталогу: MS CD 320/01
Продолжительность: 00:59:49
Наличие сканов в содержимом раздачи: да
Треклист:
01. Пролог [2:04]
02. Поздравь бабулю с Новым годом [4:18]
03. Добрая бабушка и лесник [3:55]
04. Ария мамы [2:11]
05. Ария мечтающей Шапочки [3:41]
06. Ария улыбающегося Волка [4:06]
07. Ария возбуждённой Шапочки [3:40]
08. Ария Колобка [6:05]
09. Ария сержанта ДПС [5:33]
10. Ария в пузырьках [2:26]
11. Я Дэд Мороз [4:29]
12. Моя внучка варит сало [5:20]
13. Ой-ей-ей, бабуля [5:54]
14. Волк-реквием [6:08]

Лог создания рипа

Exact Audio Copy V1.0 beta 3 from 29. August 2011
Отчёт EAC об извлечении, выполненном 3. февраля 2013, 21:29
Красная Плесень / Приключения Красной Шапочки
Дисковод: MATSHITADVD-RAM UJ8B0 Adapter: 0 ID: 1
Режим чтения : ДостоверностьИспользование точного потока : ДаОтключение кэша аудио : ДаИспользование указателей C2 : Нет
Коррекция смещения при чтении : 102Способность читать области Lead-in и Lead-out : НетЗаполнение пропущенных сэмплов тишиной : ДаУдаление блоков с тишиной в начале и конце : НетПри вычислениях CRC использовались нулевые сэмплы : ДаИнтерфейс : Встроенный Win32-интерфейс для Win NT/2000
Выходной формат : Пользовательский кодировщикВыбранный битрейт : 128 kBit/sКачество : ВысокийДобавление ID3-тега : НетУтилита сжатия : C:\Program Files (x86)\Exact Audio Copy\Flac\flac.exeДополнительные параметры : -V -8 -T "Date=%year%" -T "Genre=%genre%" %source%
TOC извлечённого CD
Трек | Старт | Длительность | Начальный сектор | Конечный сектор --------------------------------------------------------------------- 1 | 0:00.00 | 2:03.51 | 0 | 9275 2 | 2:03.51 | 4:18.11 | 9276 | 28636 3 | 6:21.62 | 3:54.72 | 28637 | 46258 4 | 10:16.59 | 2:11.10 | 46259 | 56093 5 | 12:27.69 | 3:41.16 | 56094 | 72684 6 | 16:09.10 | 4:05.57 | 72685 | 91116 7 | 20:14.67 | 3:39.73 | 91117 | 107614 8 | 23:54.65 | 6:04.64 | 107615 | 134978 9 | 29:59.54 | 5:32.38 | 134979 | 159916 10 | 35:32.17 | 2:26.31 | 159917 | 170897 11 | 37:58.48 | 4:28.57 | 170898 | 191054 12 | 42:27.30 | 5:20.20 | 191055 | 215074 13 | 47:47.50 | 5:53.51 | 215075 | 241600 14 | 53:41.26 | 6:08.03 | 241601 | 269203
Характеристики диапазона извлечения и сообщения об ошибках
Выбранный диапазон
Имя файла D:\Music\Красная Плесень\Красная Плесень - Приключения Красной Шапочки.wav
Пиковый уровень 100.0 % Скорость извлечения 2.1 X Качество диапазона 100.0 % CRC теста 1EB7B7C0 CRC копии 1EB7B7C0 Копирование... OK
Ошибок не произошло
AccurateRip: сводка
Трек 1 : извлечено точно (доверие 2) [9BCD728D] (AR v1)Трек 2 : извлечено точно (доверие 2) [656E950D] (AR v1)Трек 3 : извлечено точно (доверие 2) [095F8D50] (AR v1)Трек 4 : извлечено точно (доверие 2) [DC4756E0] (AR v1)Трек 5 : извлечено точно (доверие 2) [09C8334E] (AR v1)Трек 6 : извлечено точно (доверие 2) [9E67F048] (AR v1)Трек 7 : извлечено точно (доверие 2) [35FA71B9] (AR v1)Трек 8 : извлечено точно (доверие 2) [E401C0BE] (AR v1)Трек 9 : извлечено точно (доверие 2) [17B52135] (AR v1)Трек 10 : извлечено точно (доверие 2) [08F58C87] (AR v1)Трек 11 : извлечено точно (доверие 2) [79DF2CA7] (AR v1)Трек 12 : извлечено точно (доверие 2) [18B42B78] (AR v1)Трек 13 : извлечено точно (доверие 2) [5F2DE5BC] (AR v1)Трек 14 : извлечено точно (доверие 2) [F4774B68] (AR v1)
Все треки извлечены точно
Конец отчёта
==== Контрольная сумма отчёта 1F5919370322ED92CC357D3CFE713B9DC68B19DB95A13BD4D9DAB9DE63D662F5 ====

Лог проверки качества

-----------------------
DON'T MODIFY THIS FILE
-----------------------
PERFORMER: auCDtect Task Manager, ver. 1.6.0 RC1 build 1.6.0.1Copyright (c) 2008-2010 y-soft. All rights reservedhttp://y-soft.org
ANALYZER: auCDtect: CD records authenticity detector, version 0.8.2Copyright (c) 2004 Oleg Berngardt. All rights reserved.Copyright (c) 2004 Alexander Djourik. All rights reserved.
FILE: Красная Плесень - Приключения Красной Шапочки.flac Size: 388541802 Hash: F8A6CEA68D3987EA1B51DDAAC169F2CD Accuracy: -m0 Conclusion: CDDA 100% Signature: BA958764B4831AF76B010BB725E56B01B936B4CC

Скриншот спектра частот

2012 - Golden Ballads (Россия)

Страна-производитель диска: Россия
Год издания: 2012
Издатель (лейбл): Classic Company
Номер по каталогу: CC CD 36/12
Продолжительность: 01:08:44
Наличие сканов в содержимом раздачи: нет
Треклист:
01. 20 лет [3:01]
02. Афганистан [4:35]
03. Белокурая девчонка [5:28]
04. В полнолунную ночь [2:15]
05. Клиническая смерть [4:05]
06. Мама [4:19]
07. Мир абстрактных иллюзий [3:56]
08. На землю капает дождь [4:40]
09. Не улетай (исп. Алексей Фролов) [5:11]
10. Ночка (исп. Алексей Фролов) [3:15]
11. Памяти всех безвременно ушедших [2:44]
12. Панк-баллада [3:02]
13. Последняя любовь [5:24]
14. Ржавое солнце [4:10]
15. Свинцовый туман [3:05]
16. Я бы хотел [3:52]
17. Там где ты (памяти Виктора Цоя) [3:17]
18. Уничтожили ночь (памяти Виктора Цоя) [2:26]

Лог создания рипа

Exact Audio Copy V1.0 beta 4 from 7. December 2014
Отчёт EAC об извлечении, выполненном 22. марта 2015, 14:34
Красная Плесень / Golden Ballads
Дисковод: MATSHITADVD-RAM UJ8B0 Adapter: 1 ID: 0
Режим чтения : ДостоверностьИспользование точного потока : ДаОтключение кэша аудио : ДаИспользование указателей C2 : Нет
Коррекция смещения при чтении : 102Способность читать области Lead-in и Lead-out : НетЗаполнение пропущенных сэмплов тишиной : ДаУдаление блоков с тишиной в начале и конце : НетПри вычислениях CRC использовались нулевые сэмплы : ДаИнтерфейс : Встроенный Win32-интерфейс для Win NT/2000
Выходной формат : Пользовательский кодировщикВыбранный битрейт : 128 kBit/sКачество : ВысокийДобавление ID3-тега : НетУтилита сжатия : C:\Program Files (x86)\Exact Audio Copy\Flac\flac.exeДополнительные параметры : -V -8 -T "Date=%year%" -T "Genre=%genre%" %source%
TOC извлечённого CD
Трек | Старт | Длительность | Начальный сектор | Конечный сектор --------------------------------------------------------------------- 1 | 0:00.00 | 3:00.69 | 0 | 13568 2 | 3:00.69 | 4:34.38 | 13569 | 34156 3 | 7:35.32 | 5:27.51 | 34157 | 58732 4 | 13:03.08 | 2:14.61 | 58733 | 68843 5 | 15:17.69 | 4:05.10 | 68844 | 87228 6 | 19:23.04 | 4:18.42 | 87229 | 106620 7 | 23:41.46 | 3:55.70 | 106621 | 124315 8 | 27:37.41 | 4:39.53 | 124316 | 145293 9 | 32:17.19 | 5:11.19 | 145294 | 168637 10 | 37:28.38 | 3:14.74 | 168638 | 183261 11 | 40:43.37 | 2:43.64 | 183262 | 195550 12 | 43:27.26 | 3:02.21 | 195551 | 209221 13 | 46:29.47 | 5:24.29 | 209222 | 233550 14 | 51:54.01 | 4:09.70 | 233551 | 252295 15 | 56:03.71 | 3:04.64 | 252296 | 266159 16 | 59:08.60 | 3:52.27 | 266160 | 283586 17 | 63:01.12 | 3:17.02 | 283587 | 298363 18 | 66:18.14 | 2:25.72 | 298364 | 309310
Характеристики диапазона извлечения и сообщения об ошибках
Выбранный диапазон
Имя файла D:\Music\Красная Плесень\Красная Плесень - Golden Ballads.wav
Пиковый уровень 96.6 % Скорость извлечения 2.1 X Качество диапазона 100.0 % CRC теста 392A36DD CRC копии 392A36DD Копирование... OK
Ошибок не произошло
AccurateRip: сводка
Трек 1 : извлечено точно (доверие 1) [764D1942] (AR v2)Трек 2 : извлечено точно (доверие 1) [60B17153] (AR v2)Трек 3 : извлечено точно (доверие 1) [7E0BE834] (AR v2)Трек 4 : извлечено точно (доверие 1) [E1E0F639] (AR v2)Трек 5 : извлечено точно (доверие 1) [56295AC0] (AR v2)Трек 6 : извлечено точно (доверие 1) [754A8ACD] (AR v2)Трек 7 : извлечено точно (доверие 1) [2BE5CCC5] (AR v2)Трек 8 : извлечено точно (доверие 1) [F4579F35] (AR v2)Трек 9 : извлечено точно (доверие 1) [8CBF4D05] (AR v2)Трек 10 : извлечено точно (доверие 1) [3F23D425] (AR v2)Трек 11 : извлечено точно (доверие 1) [045B4A65] (AR v2)Трек 12 : извлечено точно (доверие 1) [D23E9858] (AR v2)Трек 13 : извлечено точно (доверие 1) [68D43931] (AR v2)Трек 14 : извлечено точно (доверие 1) [28E8D8CB] (AR v2)Трек 15 : извлечено точно (доверие 1) [8815BD8D] (AR v2)Трек 16 : извлечено точно (доверие 1) [E09F23C5] (AR v2)Трек 17 : извлечено точно (доверие 1) [BCF01D5D] (AR v2)Трек 18 : извлечено точно (доверие 1) [97844D89] (AR v2)
Все треки извлечены точно
Конец отчёта
==== Контрольная сумма отчёта 1BA9277AA02891F582C49EA8443B3692E7EA41298C1AF69F912D3A60029124EE ====

Лог проверки качества

-----------------------
DON'T MODIFY THIS FILE
-----------------------
PERFORMER: auCDtect Task Manager, ver. 1.6.0 RC1 build 1.6.0.1Copyright (c) 2008-2010 y-soft. All rights reservedhttp://y-soft.org
ANALYZER: auCDtect: CD records authenticity detector, version 0.8.2Copyright (c) 2004 Oleg Berngardt. All rights reserved.Copyright (c) 2004 Alexander Djourik. All rights reserved.
FILE: Красная Плесень - Golden Ballads.flac Size: 452628105 Hash: CE2E0234BBB879DED3501702EA8963F8 Accuracy: -m0 Conclusion: MPEG 95% Signature: 74A1DC38C95D59E0BE267AD9979C1BBA97154248

Скриншот спектра частот

2012 - 21.12.2012 (Россия)

Страна-производитель диска: Россия
Год издания: 2012
Издатель (лейбл): Classic Company
Номер по каталогу: CC CD 12/13
Продолжительность: 00:59:59
Наличие сканов в содержимом раздачи: да
Треклист:
01. Письмо Обаме [1:10]
02. Если имя ваше Лера [3:34]
03. Милиция [2:47]
04. Дусю (remix 2012) [3:15]
05. Инзе Рихтер [0:48]
06. Меня зовут Шклява [0:31]
07. Сын к отцу пришёл [2:58]
08. Запорожец [2:19]
09. Тихо в лесу 999 [2:38]
10. Спит человечество (Красная Плесень & Master Lee) [3:05]
11. Кошка не заяц (Трумбандон remix) [3:32]
12. Клизма (бонус от группы Пяточка) [3:48]
13. Гусли [2:55]
14. Погода [1:36]
15. Крюгер (тяжёлая концертная версия) [3:55]
16. Индейцы (тяжёлая концертная версия) [2:23]
17. Плачет девушка в автомате (тяжёлая концертная версия) [3:02]
18. Ветер (памяти Виктора Цоя) [3:19]
19. Может, это сон (памяти Виктора Цоя) [3:49]
20. У кого-то есть (памяти Виктора Цоя) [3:08]
21. Электричество (памяти Виктора Цоя) [4:32]
22. Недопетая баллада [0:55]

Лог создания рипа

Exact Audio Copy V1.0 beta 4 from 7. December 2014
Отчёт EAC об извлечении, выполненном 19. декабря 2014, 20:44
Красная Плесень / 21.12.2012
Дисковод: MATSHITADVD-RAM UJ8B0 Adapter: 1 ID: 0
Режим чтения : ДостоверностьИспользование точного потока : ДаОтключение кэша аудио : ДаИспользование указателей C2 : Нет
Коррекция смещения при чтении : 102Способность читать области Lead-in и Lead-out : НетЗаполнение пропущенных сэмплов тишиной : ДаУдаление блоков с тишиной в начале и конце : НетПри вычислениях CRC использовались нулевые сэмплы : ДаИнтерфейс : Встроенный Win32-интерфейс для Win NT/2000
Выходной формат : Пользовательский кодировщикВыбранный битрейт : 128 kBit/sКачество : ВысокийДобавление ID3-тега : НетУтилита сжатия : C:\Program Files (x86)\Exact Audio Copy\Flac\flac.exeДополнительные параметры : -V -8 -T "Date=%year%" -T "Genre=%genre%" %source%
TOC извлечённого CD
Трек | Старт | Длительность | Начальный сектор | Конечный сектор --------------------------------------------------------------------- 1 | 0:00.00 | 1:10.34 | 0 | 5283 2 | 1:10.34 | 3:33.56 | 5284 | 21314 3 | 4:44.15 | 2:47.28 | 21315 | 33867 4 | 7:31.43 | 3:15.07 | 33868 | 48499 5 | 10:46.50 | 0:48.04 | 48500 | 52103 6 | 11:34.54 | 0:30.40 | 52104 | 54393 7 | 12:05.19 | 2:58.16 | 54394 | 67759 8 | 15:03.35 | 2:18.49 | 67760 | 78158 9 | 17:22.09 | 2:37.44 | 78159 | 89977 10 | 19:59.53 | 3:05.04 | 89978 | 103856 11 | 23:04.57 | 3:32.00 | 103857 | 119756 12 | 26:36.57 | 3:48.21 | 119757 | 136877 13 | 30:25.03 | 2:54.40 | 136878 | 149967 14 | 33:19.43 | 1:35.41 | 149968 | 157133 15 | 34:55.09 | 3:55.27 | 157134 | 174785 16 | 38:50.36 | 2:22.46 | 174786 | 185481 17 | 41:13.07 | 3:01.60 | 185482 | 199116 18 | 44:14.67 | 3:19.33 | 199117 | 214074 19 | 47:34.25 | 3:48.72 | 214075 | 231246 20 | 51:23.22 | 3:08.25 | 231247 | 245371 21 | 54:31.47 | 4:32.01 | 245372 | 265772 22 | 59:03.48 | 0:55.34 | 265773 | 269931
Характеристики диапазона извлечения и сообщения об ошибках
Выбранный диапазон
Имя файла D:\Music\Красная Плесень\Красная Плесень - 21.12.2012.wav
Пиковый уровень 100.0 % Скорость извлечения 2.0 X Качество диапазона 100.0 % CRC теста 89C600E6 CRC копии 89C600E6 Копирование... OK
Ошибок не произошло
AccurateRip: сводка
Трек 1 отсутствует в базе данныхТрек 2 отсутствует в базе данныхТрек 3 отсутствует в базе данныхТрек 4 отсутствует в базе данныхТрек 5 отсутствует в базе данныхТрек 6 отсутствует в базе данныхТрек 7 отсутствует в базе данныхТрек 8 отсутствует в базе данныхТрек 9 отсутствует в базе данныхТрек 10 отсутствует в базе данныхТрек 11 отсутствует в базе данныхТрек 12 отсутствует в базе данныхТрек 13 отсутствует в базе данныхТрек 14 отсутствует в базе данныхТрек 15 отсутствует в базе данныхТрек 16 отсутствует в базе данныхТрек 17 отсутствует в базе данныхТрек 18 отсутствует в базе данныхТрек 19 отсутствует в базе данныхТрек 20 отсутствует в базе данныхТрек 21 отсутствует в базе данныхТрек 22 отсутствует в базе данных
Ни одного трека нет в базе AccurateRip
Конец отчёта
==== Контрольная сумма отчёта 735C714E98CD8F49C33E2CB2992FE2135F58693CB9DE76276D53E0FEDFD29760 ====

Лог проверки качества

-----------------------
DON'T MODIFY THIS FILE
-----------------------
PERFORMER: auCDtect Task Manager, ver. 1.6.0 RC1 build 1.6.0.1Copyright (c) 2008-2010 y-soft. All rights reservedhttp://y-soft.org
ANALYZER: auCDtect: CD records authenticity detector, version 0.8.2Copyright (c) 2004 Oleg Berngardt. All rights reserved.Copyright (c) 2004 Alexander Djourik. All rights reserved.
FILE: Красная Плесень - 21.12.2012.flac Size: 438873656 Hash: 6725567EC127610B480B1885F93A36AD Accuracy: -m0 Conclusion: CDDA 100% Signature: F7B62D9C9D560EAE08AFF247D5AA20EF9F715FB4

Скриншот спектра частот

Яндекс.Метрика
Рейтинг@Mail.ru