[ Сегодня на трекере фрилич! Идет свободное скачивание без начисления Download ]

(Punk-Rock) [CD] Красная Плесень - Красная Плесень с 'Симфоническим оркестром' - 2004, FLAC (image+.cue), lossless

 

Создавать темы 01-Май-2015 14:53

Красная Плесень -
Красная Плесень с 'Симфоническим оркестром'
Жанр: Punk-Rock
Носитель: CD
Страна-производитель диска (релиза): Russia
Год издания: 2004
Издатель (лейбл): Master Sound Ltd
Номер по каталогу: MS CD 579 / 04
Страна исполнителя (группы): Россия / Украина
Аудиокодек: FLAC (*.flac)
Тип рипа: image+.cue
Битрейт аудио: lossless
Продолжительность: 00:44:57
Источник (релизер): My Collection
Наличие сканов в содержимом раздачи: да

Треклист:

01. Вступление к первоя части марсельбонского баллета (01:54)
02. Собачка дяди Пети (02:01)
03. Дню космонавтики посвящается (02:36)
04. Мурашки от Наташки (02:05)
05. По улице ходила (02:39)
06. Если б я был Султан (02:37)
07. Как то утром на рассвете (02:25)
08. Бл_дь (03:07)
09. Конопля на даче (02:21)
10. Вступление ко второй части марсельбонского баллета (02:22)
11. У ресторана в Ленинграде (03:10)
12. Кальян (02:40)
13. Придурок (01:59)
14. группа гОЗОН (01:26)
15. Доярка и Бык (01:58)
16. Дискотека ефрейтора Сруля (02:16)
17. Амнезия (02:20)
18. Мы с пацанами едем на разборки (01:57)
19. Мы сидели все в кругу (03:10)

Лог создания рипа

Exact Audio Copy V1.0 beta 3 from 29. August 2011
Отчёт EAC об извлечении, выполненном 4. января 2015, 12:52
Красная Плесень / Красная Плесень с 'Симфоническим оркестром'
Дисковод: ATAPI iHAS124 D Adapter: 2 ID: 1
Режим чтения : ДостоверностьИспользование точного потока : ДаОтключение кэша аудио : ДаИспользование указателей C2 : Нет
Коррекция смещения при чтении : 6Способность читать области Lead-in и Lead-out : НетЗаполнение пропущенных сэмплов тишиной : ДаУдаление блоков с тишиной в начале и конце : НетПри вычислениях CRC использовались нулевые сэмплы : ДаИнтерфейс : Встроенный Win32-интерфейс для Win NT/2000
Выходной формат : Пользовательский кодировщикВыбранный битрейт : 768 kBit/sКачество : ВысокийДобавление ID3-тега : НетУтилита сжатия : C:\Program Files (x86)\Exact Audio Copy\FLAC\FLAC.EXEДополнительные параметры : V -8 -T "Date=%year%" -T "Genre=%genre%" %source%
TOC извлечённого CD
Трек | Старт | Длительность | Начальный сектор | Конечный сектор --------------------------------------------------------------------- 1 | 0:00.00 | 1:53.73 | 0 | 8547 2 | 1:53.73 | 2:00.72 | 8548 | 17619 3 | 3:54.70 | 2:35.32 | 17620 | 29276 4 | 6:30.27 | 2:04.28 | 29277 | 38604 5 | 8:34.55 | 2:39.05 | 38605 | 50534 6 | 11:13.60 | 2:37.06 | 50535 | 62315 7 | 13:50.66 | 2:25.18 | 62316 | 73208 8 | 16:16.09 | 3:06.24 | 73209 | 87182 9 | 19:22.33 | 2:20.24 | 87183 | 97706 10 | 21:42.57 | 2:21.24 | 97707 | 108305 11 | 24:04.06 | 3:09.44 | 108306 | 122524 12 | 27:13.50 | 2:39.26 | 122525 | 134475 13 | 29:53.01 | 1:59.17 | 134476 | 143417 14 | 31:52.18 | 1:26.12 | 143418 | 149879 15 | 33:18.30 | 1:57.57 | 149880 | 158711 16 | 35:16.12 | 2:15.40 | 158712 | 168876 17 | 37:31.52 | 2:19.39 | 168877 | 179340 18 | 39:51.16 | 1:56.48 | 179341 | 188088 19 | 41:47.64 | 3:09.23 | 188089 | 202286 20 | 47:29.12 | 0:21.49 | 213687 | 215310
Характеристики диапазона извлечения и сообщения об ошибках
Выбранный диапазон
Имя файла C:\Users\Temandroid\Desktop\Красная Плесень - Красная Плесень с 'Симфоническим оркестром'.wav
Пиковый уровень 98.8 % Скорость извлечения 3.1 X Качество диапазона 99.9 % CRC теста 28B9282A CRC копии 28B9282A Копирование... OK
Ошибок не произошло
Конец отчёта
==== Контрольная сумма отчёта DBB204680319F468BC10EA03B03722A9CB753818673D1515E37164234801CF99 ====

Содержание индексной карты (.CUE)

REM GENRE "Punk Rock"REM DATE 2004REM DISCID 080B3614REM COMMENT "ExactAudioCopy v1.0b3"PERFORMER "Красная Плесень"TITLE "Красная Плесень с 'Симфоническим оркестром'"FILE "Красная Плесень - Красная Плесень с 'Симфоническим оркестром'.flac" WAVE TRACK 01 AUDIO TITLE "Вступление к первоя части марсельбонского баллета" PERFORMER "Красная Плесень" INDEX 01 00:00:00 TRACK 02 AUDIO TITLE "Собачка дяди Пети" PERFORMER "Красная Плесень" INDEX 00 01:52:73 INDEX 01 01:53:73 TRACK 03 AUDIO TITLE "Дню космонавтики посвящается" PERFORMER "Красная Плесень" INDEX 00 03:53:70 INDEX 01 03:54:70 TRACK 04 AUDIO TITLE "Мурашки от Наташки" PERFORMER "Красная Плесень" INDEX 00 06:29:27 INDEX 01 06:30:27 TRACK 05 AUDIO TITLE "По улице ходила" PERFORMER "Красная Плесень" INDEX 00 08:33:55 INDEX 01 08:34:55 TRACK 06 AUDIO TITLE "Если б я был Султан" PERFORMER "Красная Плесень" INDEX 00 11:12:60 INDEX 01 11:13:60 TRACK 07 AUDIO TITLE "Как то утром на рассвете" PERFORMER "Красная Плесень" INDEX 00 13:49:66 INDEX 01 13:50:66 TRACK 08 AUDIO TITLE "цензура" PERFORMER "Красная Плесень" INDEX 00 16:15:10 INDEX 01 16:16:09 TRACK 09 AUDIO TITLE "Конопля на даче" PERFORMER "Красная Плесень" INDEX 00 19:21:33 INDEX 01 19:22:33 TRACK 10 AUDIO TITLE "Вступление ко второй части марсельбонского баллета" PERFORMER "Красная Плесень" INDEX 00 21:41:57 INDEX 01 21:42:57 TRACK 11 AUDIO TITLE "У ресторана в Ленинграде" PERFORMER "Красная Плесень" INDEX 00 24:03:07 INDEX 01 24:04:06 TRACK 12 AUDIO TITLE "Кальян" PERFORMER "Красная Плесень" INDEX 00 27:12:50 INDEX 01 27:13:50 TRACK 13 AUDIO TITLE "Придурок" PERFORMER "Красная Плесень" INDEX 00 29:52:01 INDEX 01 29:53:01 TRACK 14 AUDIO TITLE "группа гОЗОН" PERFORMER "Красная Плесень" INDEX 00 31:51:18 INDEX 01 31:52:18 TRACK 15 AUDIO TITLE "Доярка и Бык" PERFORMER "Красная Плесень" INDEX 00 33:17:30 INDEX 01 33:18:30 TRACK 16 AUDIO TITLE "Дискотека ефрейтора Сруля" PERFORMER "Красная Плесень" INDEX 00 35:15:12 INDEX 01 35:16:12 TRACK 17 AUDIO TITLE "Амнезия" PERFORMER "Красная Плесень" INDEX 00 37:30:52 INDEX 01 37:31:52 TRACK 18 AUDIO TITLE "Мы с пацанами едем на разборки" PERFORMER "Красная Плесень" INDEX 00 39:50:16 INDEX 01 39:51:16 TRACK 19 AUDIO TITLE "Мы сидели все в кругу" PERFORMER "Красная Плесень" INDEX 00 41:46:64 INDEX 01 41:47:64

Создавать темы 01-Май-2015 15:22 (спустя 29 минут)

Спасибо большое !
Яндекс.Метрика
Рейтинг@Mail.ru