Inna - Love (2009) HDTVRip 1080p | 60 fps

 

Создавать темы 30-Апр-2015 18:52

Inna - Love (2009) HDTVRip 1080p | 60 fps

Информация о Клипе:
Исполнители:Inna
Название:Love
Год выпуска: 2009 г.
Жанр: Поп
Страна: Румыния
Продолжительность: 03.24мин

Файл:
Формат видео: MKV
Качество видео: HDTVRip 1080p | 60 fps
Видео кодек: H.264
Аудио кодек: AC3
Видео: 1920x1080 | 60,000 кадров/сек | 14,0 Мбит/сек
Аудио: AC3 | 2 channels | 44,1 kHz |384 Кбит/сек

Автор Рипа:Kamikkadze
Релиз Группа 60-fps

MediaInfo

Общее
Уникальный идентификатор : 246471340781819776919035866759693557632 (0xB96CA75000BFB6CCACEC354656C35F80)
Полное имя : C:\Users\Kamikkadze\Desktop\Клипы\на 60\Inna - Love-2009.mkv
Формат : Matroska
Версия формата : Version 4 / Version 2
Размер файла : 351 Мбайт
Продолжительность : 3 м. 24 с.
Общий поток : 14,4 Мбит/сек
Название фильма : Inna - Love (Rip By Kamikkadze)
Дата кодирования : UTC 2015-04-30 15:35:08
Программа кодирования : mkvmerge v7.8.0 ('River Man') 64bit built on Mar 27 2015 16:31:37
Библиотека кодирования : libebml v1.3.1 + libmatroska v1.4.2
DURATION : 00:03:24.382000000
NUMBER_OF_FRAMES : 5868
NUMBER_OF_BYTES : 9810336
_STATISTICS_WRITING_APP : mkvmerge v7.8.0 ('River Man') 64bit built on Mar 27 2015 16:31:37
_STATISTICS_WRITING_DATE_UTC : 2015-04-30 15:35:08
_STATISTICS_TAGS : BPS DURATION NUMBER_OF_FRAMES NUMBER_OF_BYTES
Видео
Идентификатор : 1
Формат : AVC
Формат/Информация : Advanced Video Codec
Профиль формата : [email protected]
Параметр CABAC формата : Да
Параметр ReFrames формата : 8 кадров
Идентификатор кодека : V_MPEG4/ISO/AVC
Продолжительность : 3 м. 24 с.
Битрейт : 14,0 Мбит/сек
Ширина : 1920 пикселей
Высота : 1080 пикселей
Соотношение сторон : 16:9
Режим частоты кадров : Постоянный
Частота кадров : 60,000 кадров/сек
Цветовое пространство : YUV
Субдискретизация насыщенности : 4:2:0
Битовая глубина : 8 бит
Тип развёртки : Прогрессивная
Бит/(Пиксели*Кадры) : 0.113
Размер потока : 335 Мбайт (95%)
Заголовок : Rip By Kamikkadze
Библиотека кодирования : x264 core 130 r2273 b3065e6
Настройки программы : cabac=1 / ref=8 / deblock=1:-1:-1 / analyse=0x3:0x133 / me=umh / subme=7 / psy=1 / psy_rd=1.00:0.10 / mixed_ref=1 / me_range=16 / chroma_me=1 / trellis=2 / 8x8dct=1 / cqm=0 / deadzone=21,11 / fast_pskip=0 / chroma_qp_offset=-3 / threads=6 / lookahead_threads=1 / sliced_threads=0 / nr=0 / decimate=1 / interlaced=0 / bluray_compat=0 / constrained_intra=0 / bframes=3 / b_pyramid=2 / b_adapt=2 / b_bias=0 / direct=3 / weightb=1 / open_gop=0 / weightp=2 / keyint=250 / keyint_min=25 / scenecut=40 / intra_refresh=0 / rc_lookahead=50 / rc=2pass / mbtree=1 / bitrate=14000 / ratetol=1.0 / qcomp=0.60 / qpmin=0 / qpmax=69 / qpstep=4 / cplxblur=20.0 / qblur=0.5 / ip_ratio=1.40 / aq=1:1.00
Default : Да
Forced : Нет
Аудио
Идентификатор : 2
Формат : AC-3
Формат/Информация : Audio Coding 3
Расширение режима : CM (complete main)
Параметр Endianness формата : Big
Идентификатор кодека : A_AC3
Продолжительность : 3 м. 24 с.
Вид битрейта : Постоянный
Битрейт : 384 Кбит/сек
Каналы : 2 канала
Расположение каналов : Front: L R
Частота : 44,1 КГц
Битовая глубина : 16 бит
Метод сжатия : С потерями
Размер потока : 9,37 Мбайт (3%)
Заголовок : Rip By Kamikkadze
Default : Да
Forced : Нет
Просьба к переливающим на другие сайты, в оформлении указывайте пожалуйста авторство рипа - Kamikkadze
Яндекс.Метрика
Рейтинг@Mail.ru