Зажигая звёзды / Set Fire to the Stars (2014) BDRip [H.264/720p]

 

Создавать темы 30-Апр-2015 17:29

--Зажигая звёзды / Set Fire to the Stars (2014) BDRip [H.264/720p]--
    • Производство: U.K. / Mad As Birds, Masnomis
    • Жанр: драма
    • Режиссер: Энди Годдар
    • Продюсер: Энди Эванс, Эндрю Райч, Стив Кларк-Холл
    • Актеры: Элайджа Вуд, Селин Джонс, Келли Райлли, Стивен Макинтош, Ширли Хендерсон, Кевин Элдон, Стив Спайрс, Ричард Брэйк, Эндрю Бикнелл, Кейт Дрю
    • Описание:
          Действие происходит в далеких пятидесятых годах прошлого века в Нью-Йорке. Джон приглашает своего старого знакомого Томаса на литературные вечера, а также на проведение лекций, посвященных литературе. Каждый из них воспринимает мир по-своему. Джон, молодой человек, который хочет и старается в этой жизни чего-нибудь достичь. Для этого он прикладываем много сил и стараний. Он уже успел добиться определенного уровня в обществе. Встретил любимую девушку. Этот стиль жизни его вполне устраивает. Томас, по возрасту немного старше Джона. Но по способу жизни этого не скажешь. Томас любит свободную и вольную, и беззаботную жизнь. Часто поводит время в барах, любит выпить и подебоширить. Он к жизни относится намного проще своего друга. Из-за чего и возникают частые разногласия между ними. Но за легкомысленным способом жизни он скрывает совершено одинокого человека. Как же будут развиваться отношения между совершенно разными людьми, и смогут ли они прийти к общему согласию? Изменится ли жизнь Томаса?..
-
    • Возраст: 16+
    • Дата мировой премьеры: 23 июня 2014
    • Дата российской премьеры: 30 апреля 2015, «АКМ»
-
    • Продолжительность: 01:36:47
    • Качество: BDRip (720p)
    • Перевод: профессиональный (многоголосый закадровый) (iTunes Russia)
    • Вид субтитров: вшитые отключаемые
    • Язык субтитров: английский
    • Видео: MPEG-4 AVC/H.264, 1280 x 544 (2,35:1), 4 949 kbps, 24.000 fps, 0.296 b/px
    • Аудио # 1: АС3, 6 ch, 384 kbps, 48 000 Hz - многоголосый закадровый - iTunes Russia
    • Аудио # 2: DTS, 6 ch, 1509 kbps, 48 000 Hz - оригинальный
-

MediaInfo

Код:
Общее
Уникальный идентификатор : 187573241766686712093719843924514876709 (0x8D1D4AD4B99511C9B8ADDE6F20C2AD25)
Полное имя : F:\Zazhyg41a.zvezdy.2014.P.BDRip.720p.mkv
Формат : Matroska
Версия формата : Version 4 / Version 2
Размер файла : 4,63 Гбайт
Продолжительность : 1 ч. 36 м.
Общий поток : 6846 Кбит/сек
Дата кодирования : UTC 2015-04-29 18:11:23
Программа кодирования : mkvmerge v6.9.1 ('Blue Panther') 64bit built on Apr 18 2014 18:23:38
Библиотека кодирования : libebml v1.3.0 + libmatroska v1.4.1
Видео
Идентификатор : 1
Формат : AVC
Формат/Информация : Advanced Video Codec
Профиль формата : [email protected]
Параметр CABAC формата : Да
Параметр ReFrames формата : 5 кадров
Идентификатор кодека : V_MPEG4/ISO/AVC
Продолжительность : 1 ч. 36 м.
Битрейт : 4949 Кбит/сек
Ширина : 1280 пикселей
Высота : 544 пикселя
Соотношение сторон : 2,35:1
Режим частоты кадров : Постоянный
Частота кадров : 24,000 кадра/сек
Цветовое пространство : YUV
Субдискретизация насыщенности : 4:2:0
Битовая глубина : 8 бит
Тип развёртки : Прогрессивная
Бит/(Пиксели*Кадры) : 0.296
Размер потока : 3,26 Гбайт (70%)
Библиотека кодирования : x264 core 144 r2525 40bb568
Настройки программы : cabac=1 / ref=5 / deblock=1:0:0 / analyse=0x3:0x133 / me=umh / subme=7 / psy=1 / psy_rd=1.00:0.00 / mixed_ref=1 / me_range=16 / chroma_me=1 / trellis=1 / 8x8dct=1 / cqm=0 / deadzone=21,11 / fast_pskip=0 / chroma_qp_offset=-2 / threads=12 / lookahead_threads=2 / sliced_threads=0 / nr=0 / decimate=1 / interlaced=0 / bluray_compat=0 / constrained_intra=0 / bframes=3 / b_pyramid=2 / b_adapt=2 / b_bias=0 / direct=3 / weightb=1 / open_gop=0 / weightp=2 / keyint=250 / keyint_min=24 / scenecut=40 / intra_refresh=0 / rc_lookahead=50 / rc=2pass / mbtree=1 / bitrate=4949 / ratetol=1.0 / qcomp=0.60 / qpmin=0 / qpmax=69 / qpstep=4 / cplxblur=20.0 / qblur=0.5 / ip_ratio=1.40 / aq=1:1.00
Язык : English
Default : Да
Forced : Нет
Аудио #1
Идентификатор : 2
Формат : AC-3
Формат/Информация : Audio Coding 3
Расширение режима : CM (complete main)
Параметр Endianness формата : Big
Идентификатор кодека : A_AC3
Продолжительность : 1 ч. 36 м.
Вид битрейта : Постоянный
Битрейт : 384 Кбит/сек
Каналы : 6 каналов
Расположение каналов : Front: L C R, Side: L R, LFE
Частота : 48,0 КГц
Битовая глубина : 16 бит
Метод сжатия : С потерями
Размер потока : 266 Мбайт (6%)
Язык : Russian
Default : Да
Forced : Нет
Аудио #2
Идентификатор : 3
Формат : DTS
Формат/Информация : Digital Theater Systems
Режим : 16
Параметр Endianness формата : Big
Идентификатор кодека : A_DTS
Продолжительность : 1 ч. 36 м.
Вид битрейта : Постоянный
Битрейт : 1509 Кбит/сек
Каналы : 6 каналов
Расположение каналов : Front: L C R, Side: L R, LFE
Частота : 48,0 КГц
Битовая глубина : 24 бит
Метод сжатия : С потерями
Размер потока : 1,02 Гбайт (22%)
Язык : English
Default : Нет
Forced : Нет
Текст
Идентификатор : 4
Формат : UTF-8
Идентификатор кодека : S_TEXT/UTF8
Идентификатор кодека/Информация : UTF-8 Plain Text
Язык : English
Default : Нет
Forced : Нет
Меню
00:00:00.000 : en:00:00:00.000
00:06:40.750 : en:00:06:40.750
00:14:25.042 : en:00:14:25.042
00:22:54.500 : en:00:22:54.500
00:29:21.292 : en:00:29:21.292
00:35:42.083 : en:00:35:42.083
00:44:12.833 : en:00:44:12.833
00:59:55.042 : en:00:59:55.042
01:04:03.875 : en:01:04:03.875
01:16:02.375 : en:01:16:02.375
01:22:39.542 : en:01:22:39.542
01:30:18.417 : en:01:30:18.417

Интересные факты

*** Сюжет фильма частично основан на романе Джона Малкольма Бриннена (John Malcolm Brinnen) «Дилан Томас в Америке».
*** Весь фильм был отснят за 18 дней в Суонси, в Великобритании.
*** Композитор Груфф Риз сочинил большую часть музыки к фильму еще до того, как увидел отснятый материал.
Скриншоты:
Яндекс.Метрика
Рейтинг@Mail.ru