[Футбол] Чемпионат Германии 2013-2014 / 13-й тур / Боруссия Д (Дортмунд) - Бавария / Sky 3D [23.11.2013, Футбол, DVB-S2 Remux, 1080i, DE]

 

Создавать темы 01-Дек-2013 05:46

Чемпионат Германии 2013-2014 / 13-й тур / Боруссия Д (Дортмунд) - Бавария
Вид спорта: Футбол
Дата/Год выпуска: 23.11.2013
Язык комментариев: немецкий
Формат 3D: Half SideBySide | Горизонтальная анаморфная стереопара
Автор записи: SashaR.
Качество: DVB-S2 Remux
Формат видео: TS
Видео: AVC, 1920x1080, 16:9, 9 595 Kbps, 25 fps
Аудио: AC-3, 384 Kbps, 48.0 kHz, 6 channels

Составы

Media Info

G:\BL Borussia Dortmund - FC Bayern Munchen. 13 spieltag.ts
General #6
ID : 6 (0x6)
Complete name : G:\BL Borussia Dortmund - FC Bayern Munchen. 13 spieltag.ts
Format : MPEG-TS
File size : 8.07 GiB
Duration : 1h 50mn
Overall bit rate mode : Variable
Overall bit rate : 10.5 Mbps
Video #767
ID : 767 (0x2FF)
Menu ID : 117 (0x75)
Format : AVC
Format/Info : Advanced Video Codec
Format profile : [email protected]
Format settings, CABAC : Yes
Format settings, ReFrames : 3 frames
Format settings, GOP : M=4, N=28
Codec ID : 27
Duration : 1h 50mn
Bit rate : 9 595 Kbps
Width : 1 920 pixels
Height : 1 080 pixels
Display aspect ratio : 16:9
Frame rate : 25.000 fps
Standard : Component
Color space : YUV
Chroma subsampling : 4:2:0
Bit depth : 8 bits
Scan type : Interlaced
Scan order : Top Field First
Bits/(Pixel*Frame) : 0.185
Stream size : 7.37 GiB (91%)
Color primaries : BT.709
Transfer characteristics : BT.709
Matrix coefficients : BT.709
Audio #772
ID : 772 (0x304)
Menu ID : 117 (0x75)
Format : AC-3
Format/Info : Audio Coding 3
Mode extension : CM (complete main)
Format settings, Endianness : Big
Codec ID : 6
Duration : 1h 50mn
Bit rate mode : Constant
Bit rate : 384 Kbps
Channel count : 2 channels
Channel positions : Front: L R
Sampling rate : 48.0 KHz
Bit depth : 16 bits
Compression mode : Lossy
Delay relative to video : 61ms
Stream size : 302 MiB (4%)
Language : English
Language, more info : Clean effects

Продолжительность

01:50:03

Счёт/Итог

0:3
------
Яндекс.Метрика
Рейтинг@Mail.ru