След / Серии: 1201 - 1215 из ? (Юрий Харнас и др.) [2014, Детектив, SATRip]

 

Создавать темы 30-Апр-2015 12:53

-След- Год выпуска: 2014
Производство: ООО "Объединение телевизионных компаний", Россия
Жанр: Детектив
Продолжительность: ~ 39 мин.
Режиссёр: Юрий Харнас и др.
В ролях: Ольга Копосова, Владимир Ташлыков, Павел Шуваев, Георгий Тесля-Герасимов, Анна Дюкова, Сергей Пиоро, Андрей Лавров, Евгений Кулаков, Анастасия Гулимова, Олег Валкман, Станислав Эрклиевский, Ольга Зейгер, Руслан Сасин, Александра Попова, Сергей Коваленко
Описание: Идеальных преступлений не бывает. После каждого остаются следы. Иногда эти следы бросаются в глаза. Иногда их можно найти только с помощью специальных приборов. Федеральная Экспертная служба - это уникальная лаборатория, которая объединяет несколько экспертных служб в одну и отвечает за проведение исследований во всех мыслимых областях прикладной криминалистики, будь то химическая, биологическая, медицинская экспертиза или баллистика...
Сэмпл

Внимание! Раздача ведётся путём добавления новых серий

Внимание! Раздача ведётся путём добавления новых серий; при каждом добавлении создаётся новый торрент. Чтобы начать докачку новой серии, пользователям необходимо сделать следующее:
(1) остановить скачивание,
(2) удалить старый торрент у себя из клиента (старые серии удалять не надо),
(3) скачать новый торрент и запустить его у себя в клиенте вместо старого, при этом указать клиенту путь в старую папку куда и должно происходить скачивание новых серий.
Ваш клиент при этом должен произвести хеширование (проверку) старой папки (если не производит сам - помогите ему сделать это), и будет докачивать только те серии которых у вас ещё нет. Старые серии при этом не удаляются, а продолжают раздаваться!
Eсли вы уже удалили старые серии, то предотвратить повторную закачку старых серий можно, отжав галочку в соответствующих местах при запуске нового торрента. По возможности, желательно не удалять старые серии как можно дольше чтобы релизёр не столько продолжал раздавать старые серии, а смог сконцентрироваться на новых.
Качество: SATRip
Формат: AVI
Видео кодек: XviD
Аудио кодек: MP3
Видео: 704x400 (1.76:1), 25 fps, XviD build 73 ~1400 kbps avg, 0.20 bit/pixel
Аудио: 48 kHz, MPEG Layer 3, 2 ch, ~128.00 kbps avg

MI

Формат : AVI
Формат/Информация : Audio Video Interleave
Размер файла : 425 Мбайт
Продолжительность : 38 м.
Общий поток : 1538 Кбит/сек
Программа кодирования : VirtualDubMod 1.5.10.3 | www.virtualdub-fr.org || (build 2550/release)
Библиотека кодирования : VirtualDubMod build 2550/release
Видео
Идентификатор : 0
Формат : MPEG-4 Visual
Профиль формата : Advanced [email protected]
Параметр BVOP формата : 2
Параметр QPel формата : Нет
Параметр GMC формата : Без точки перехода
Параметр матрицы формата : Default (MPEG)
Идентификатор кодека : XVID
Идентификатор кодека/Подсказка : XviD
Продолжительность : 38 м.
Битрейт : 1400 Кбит/сек
Ширина : 704 пикселя
Высота : 400 пикселей
Соотношение сторон : 16:9
Частота кадров : 25,000 кадров/сек
Цветовое пространство : YUV
Субдискретизация насыщенности : 4:2:0
Битовая глубина : 8 бит
Тип развёртки : Прогрессивная
Метод сжатия : С потерями
Бит/(Пиксели*Кадры) : 0.199
Размер потока : 387 Мбайт (91%)
Библиотека кодирования : XviD 73
Аудио
Идентификатор : 1
Формат : MPEG Audio
Версия формата : Version 1
Профиль формата : Layer 3
Идентификатор кодека : 55
Идентификатор кодека/Подсказка : MP3
Продолжительность : 38 м.
Вид битрейта : Постоянный
Битрейт : 128 Кбит/сек
Каналы : 2 канала
Частота : 48,0 КГц
Метод сжатия : С потерями
Размер потока : 35,4 Мбайт (8%)
Выравнивание : Соединение по промежуткам
Продолжительность промежутка : 40 мс. (1,00 видеокадр)
Время предзагрузки промежутка : 504 мс.
Библиотека кодирования : LAME3.99r
Настройки программы : -m s -V 4 -q 0 -lowpass 17 -b 128

Названия серий


1201 - "Настоящие индейцы"
1202 - "Красота убивает"
1203 - "До самой смерти"
1204 - "Жалкая попытка оправдаться"
1205 - "Меч дьявола"
1206 - "Козёл отпущения"
1207 - "Дриада"
1208 - "Ребёнок в коробке"
1209 - "Продавец света"
1210 - "Сверхценность"
1211 - "Ремонт до гроба"
1212 - "Соблазнение по-японски"
1213 - "Бычок"
1214 - "Мёртвое озеро"
1215 - "Афганский бумеранг"

Скриншоты

Яндекс.Метрика
Рейтинг@Mail.ru