The Black Eyed Peas - My Humps (2009) DVDRip | 60 fps

 

Создавать темы 29-Апр-2015 21:10

The Black Eyed Peas - My Humps (2009) DVDRip | 60 fps
Информация о Клипе:
Исполнители:The Black Eyed Peas
Название:My Humps
Год выпуска: 2009 г.
Жанр: Поп,Хип-Хоп
Продолжительность: 03.54мин
Файл:
Формат видео: MKV
Качество видео: DVDRip | 60 fps
Видео кодек: H.264
Аудио кодек: AC3
Видео: 720x552 | 59.940 fps | 9000 Кбит/сек
Аудио: AC3 | 2 channels | 48 kHz |384 Кбит/сек
Автор Рипа: Kamikkadze

MediaInfo

Общее
Уникальный идентификатор : 248670603491462831999537336281113529609 (0xBB143755F43F49ADADDF98FA574F8D09)
Полное имя : C:\Users\Kamikkadze\Desktop\Клипы\на 60\Black Eyed Peas-My Humps.mkv
Формат : Matroska
Версия формата : Version 4 / Version 2
Размер файла : 260 Мбайт
Продолжительность : 3 м. 54 с.
Общий поток : 9336 Кбит/сек
Название фильма : Black-Eyed-Peas-My-Humps(Rip By Kamikkadze)
Дата кодирования : UTC 2015-04-27 18:26:35
Программа кодирования : mkvmerge v7.8.0 ('River Man') 64bit built on Mar 27 2015 16:31:37
Библиотека кодирования : libebml v1.3.1 + libmatroska v1.4.2
DURATION : 00:03:54.048000000
NUMBER_OF_FRAMES : 7314
NUMBER_OF_BYTES : 11234304
_STATISTICS_WRITING_APP : mkvmerge v7.8.0 ('River Man') 64bit built on Mar 27 2015 16:31:37
_STATISTICS_WRITING_DATE_UTC : 2015-04-27 18:26:35
_STATISTICS_TAGS : BPS DURATION NUMBER_OF_FRAMES NUMBER_OF_BYTES
Видео
Идентификатор : 1
Формат : AVC
Формат/Информация : Advanced Video Codec
Профиль формата : [email protected]
Параметр CABAC формата : Да
Параметр ReFrames формата : 8 кадров
Идентификатор кодека : V_MPEG4/ISO/AVC
Продолжительность : 3 м. 54 с.
Битрейт : 9000 Кбит/сек
Ширина : 720 пикселей
Высота : 552 пикселя
Соотношение сторон : 4:3
Режим частоты кадров : Постоянный
Частота кадров : 59,880 кадров/сек
Частота кадров в оригинале : 59,940 кадров/сек
Цветовое пространство : YUV
Субдискретизация насыщенности : 4:2:0
Битовая глубина : 8 бит
Тип развёртки : Прогрессивная
Бит/(Пиксели*Кадры) : 0.378
Размер потока : 245 Мбайт (94%)
Заголовок : Rip By Kamikkadze
Библиотека кодирования : x264 core 130 r2273 b3065e6
Настройки программы : cabac=1 / ref=8 / deblock=1:-1:-1 / analyse=0x3:0x133 / me=umh / subme=7 / psy=1 / psy_rd=1.00:0.10 / mixed_ref=1 / me_range=16 / chroma_me=1 / trellis=2 / 8x8dct=1 / cqm=0 / deadzone=21,11 / fast_pskip=0 / chroma_qp_offset=-3 / threads=6 / lookahead_threads=1 / sliced_threads=0 / nr=0 / decimate=1 / interlaced=0 / bluray_compat=0 / constrained_intra=0 / bframes=3 / b_pyramid=2 / b_adapt=2 / b_bias=0 / direct=1 / weightb=1 / open_gop=0 / weightp=2 / keyint=250 / keyint_min=25 / scenecut=40 / intra_refresh=0 / rc_lookahead=50 / rc=abr / mbtree=1 / bitrate=9000 / ratetol=1.0 / qcomp=0.60 / qpmin=0 / qpmax=69 / qpstep=4 / ip_ratio=1.40 / aq=1:1.00
Default : Да
Forced : Нет
Аудио
Идентификатор : 2
Формат : AC-3
Формат/Информация : Audio Coding 3
Расширение режима : CM (complete main)
Параметр Endianness формата : Big
Идентификатор кодека : A_AC3
Продолжительность : 3 м. 54 с.
Вид битрейта : Постоянный
Битрейт : 384 Кбит/сек
Каналы : 2 канала
Расположение каналов : Front: L R
Частота : 48,0 КГц
Битовая глубина : 16 бит
Метод сжатия : С потерями
Размер потока : 10,7 Мбайт (4%)
Заголовок : Rip By Kamikkadze
Default : Да
Forced : Нет

Скриншоты:

Яндекс.Метрика
Рейтинг@Mail.ru