5 душ / 5 Souls (Роберт Бен Гарант, Томас Леннон) [2013,триллер,WEB-DL 720p] от CINEMANIA | L2

 

Создавать темы 01-Дек-2013 04:03

Информация о фильме:
Название: 5 душ
Оригинальное название: 5 Souls
Год выхода: 2013
Жанр: триллер
Режиссер: Роберт Бен Гарант, Томас Леннон
В ролях: Кристина Анапау, Самира Армстронг, Стив Бачич, Иэн Боэн, Рекс Камминг, Элисон МакЭти, Джоди Мур, Меган Мюррэй, Райан С. Сэндс, Стивен Шуб
О фильме:
Как далеко ты способен зайти ради спасения своей души? А жизни? Недобросовестный архитектор, работающий на крупную строительную компанию, впадает в кому... Блуждая в закоулках параллельного мира, он встречает четыре блуждающие души людей, погибших по его вине, а также свою душу и Дудочника, которой ставит его перед выбором: убить снова и пойти против своей совести или же самому быть убитым...

Выпущено: США
Продолжительность: 01:34:00
Озвучивание: Любительское (двухголосое) [DeadSno & den904]
перевод на русский язык [Nitro]
Файл
Формат: MKV
Качество: WEB-DL 720p [CINEMANIA]
Видео: 4123 kb/s, 1280x720
Аудио: Russian / English: AC3, 384 kb/s (6 ch)
Субтитры: English
Дополнительно: Сохранены оригинальные чаптеры как на Blu-Ray
Размер: 2.75 Gb
Скачать: Сэмпл
Релиз группы:

NFO

General
5.Souls.2013.WEB-DL.720p.CINEMANIA.mkv
Format : Matroska
Format version : Version 4 / Version 2
File size : 2.75 GiB
Duration : 1h 18mn
Overall bit rate : 4 991 Kbps
Movie name : Release Group CINEMANIA
Encoded date : UTC 2013-11-30 21:08:23
Writing application : mkvmerge v6.5.0 ('Isn't she lovely') built on Oct 20 2013 12:50:05
Writing library : libebml v1.3.0 + libmatroska v1.4.1
Video
ID : 1
Format : AVC
Format/Info : Advanced Video Codec
Format profile : [email protected]
Format settings, CABAC : No
Format settings, ReFrames : 2 frames
Codec ID : V_MPEG4/ISO/AVC
Duration : 1h 18mn
Bit rate : 4 123 Kbps
Width : 1 280 pixels
Height : 720 pixels
Display aspect ratio : 16:9
Frame rate mode : Constant
Frame rate : 23.976 fps
Color space : YUV
Chroma subsampling : 4:2:0
Bit depth : 8 bits
Scan type : Progressive
Bits/(Pixel*Frame) : 0.187
Stream size : 2.27 GiB (83%)
Title : Release Group CINEMANIA
Language : English
Default : Yes
Forced : No
Color primaries : BT.709
Transfer characteristics : BT.709
Matrix coefficients : BT.709
Audio #1
ID : 2
Format : AC-3
Format/Info : Audio Coding 3
Mode extension : CM (complete main)
Format settings, Endianness : Big
Codec ID : A_AC3
Duration : 1h 18mn
Bit rate mode : Constant
Bit rate : 384 Kbps
Channel(s) : 6 channels
Channel positions : Front: L C R, Side: L R, LFE
Sampling rate : 48.0 KHz
Bit depth : 16 bits
Compression mode : Lossy
Stream size : 217 MiB (8%)
Title : den904 and DeadSno
Language : Russian
Default : Yes
Forced : Yes
Audio #2
ID : 3
Format : AC-3
Format/Info : Audio Coding 3
Mode extension : CM (complete main)
Format settings, Endianness : Big
Codec ID : A_AC3
Duration : 1h 18mn
Bit rate mode : Constant
Bit rate : 384 Kbps
Channel(s) : 6 channels
Channel positions : Front: L C R, Side: L R, LFE
Sampling rate : 48.0 KHz
Bit depth : 16 bits
Compression mode : Lossy
Stream size : 217 MiB (8%)
Language : English
Default : No
Forced : No
Text
ID : 4
Format : UTF-8
Codec ID : S_TEXT/UTF8
Codec ID/Info : UTF-8 Plain Text
Language : English
Default : No
Forced : No
Menu
00:00:00.000 : en:Chapter 1
00:08:23.000 : en:Chapter 2
00:13:57.000 : en:Chapter 3
00:21:41.000 : en:Chapter 4
00:30:50.000 : en:Chapter 5
00:39:39.000 : en:Chapter 6
00:47:43.000 : en:Chapter 7
00:56:19.000 : en:Chapter 8
01:04:04.000 : en:Chapter 9
01:16:49.000 : en:Chapter 10
Яндекс.Метрика
Рейтинг@Mail.ru