Смертельная гонка 2000 года / Death Race 2000 ( Пол Бартел)[1975, Фантастика, боевик, спорт, антиутопия, BDRip-AVC] от ExKinoRay | A

 

Создавать темы 01-Дек-2013 03:37

Информация о фильме
Название: Смертельная гонка 2000 года
Оригинальное название: Death Race 2000
Год выхода: 1975
Жанр: Фантастика, боевик, спорт, антиутопия
Режиссер: Пол Бартел
В ролях: Дэвид Кэрредин, Симона Гриффет, Сильвестр Сталлоне, Мэри Воронов, Роберта Коллинз, Мартин Коув, Луиза Мориц, Дон Стил, Джойс Джеймисон, Карле Бенсен
О фильме:
В не столь отдаленном будущем главным спортивным событием в мире становятся так назваемые «Смертельные гонки». Участники соревнования получают зачетные очки за каждого сбитого насмерть прохожего.

Страна: США, Columbia Associates, New World Pictures
Продолжительность: 01:19:36
Перевод: Авторский одноголосый (Кузнецов)
Субтитры: Русские, английские
Дата релиза: 30.11.2013
Файл
Кодек: H.264
Качество: BDRip (AVC)
Видео: MPEG-4 AVC, 2000 Кбит/с, 1024x576
Звук: Русский (AC3, 2 ch, 192 Кбит/с), английский (AC3, 2 ch, 448 Кбит/с)

MediaInfo

Общее
Уникальный идентификатор : 176626272105449070490702807975110142600 (0x84E0FB8E61F71B748A48E03503E86A88)
Полное имя : E:3Smertelnaja.gonka.2000.goda.1975.x264.BDRip.(AVC).ExKinoRay.mkv
Формат : Matroska
Размер файла : 1,47 Гбайт
Продолжительность : 1 ч. 19 м.
Общий поток : 2642 Кбит/сек
Название фильма : Smertelnaja.gonka.2000.goda.1975.x264.BDRip.(AVC).ExKinoRay
Дата кодирования : UTC 2013-11-30 14:25:15
Программа кодирования : mkvmerge v4.0.0 ('The Stars were mine') сборка от Jun 6 2010 16:18:42
Библиотека кодирования : libebml v1.0.0 + libmatroska v1.0.0
Видео
Идентификатор : 1
Формат : AVC
Формат/Информация : Advanced Video Codec
Профиль формата : [email protected]
Параметр CABAC формата : Да
Параметр ReFrames формата : 8 кадров
Идентификатор кодека : V_MPEG4/ISO/AVC
Продолжительность : 1 ч. 19 м.
Битрейт : 2000 Кбит/сек
Ширина : 1024 пикс.
Высота : 576 пикс.
Соотношение сторон : 16:9
Частота кадров : 23,976 кадр/сек
Цветовое пространство : YUV
Подвыборка цветности : 4:2:0
Битовая глубина : 8 бит
Тип развёртки : Прогрессивная
Бит/(Пиксели*Кадры) : 0.141
Размер потока : 1,08 Гбайт (74%)
Заголовок : Rip by Enigma-Vladislav71
Библиотека кодирования : x264 core 129 r2245 bc13772
Настройки программы : cabac=1 / ref=8 / deblock=1:-2:-2 / analyse=0x3:0x133 / me=umh / subme=11 / psy=1 / psy_rd=1.00:0.00 / mixed_ref=1 / me_range=48 / chroma_me=1 / trellis=2 / 8x8dct=1 / cqm=0 / deadzone=21,11 / fast_pskip=0 / chroma_qp_offset=-2 / threads=3 / lookahead_threads=1 / sliced_threads=0 / nr=0 / decimate=0 / interlaced=0 / bluray_compat=0 / constrained_intra=0 / bframes=8 / b_pyramid=2 / b_adapt=2 / b_bias=0 / direct=3 / weightb=1 / open_gop=0 / weightp=2 / keyint=240 / keyint_min=23 / scenecut=40 / intra_refresh=0 / rc=2pass / mbtree=0 / bitrate=2000 / ratetol=1.0 / qcomp=0.60 / qpmin=10 / qpmax=51 / qpstep=4 / cplxblur=20.0 / qblur=0.5 / ip_ratio=1.40 / pb_ratio=1.30 / aq=2:1.00
Язык : English
Аудио #1
Идентификатор : 2
Формат : AC-3
Формат/Информация : Audio Coding 3
Расширение режима : CM (complete main)
Идентификатор кодека : A_AC3
Продолжительность : 1 ч. 19 м.
Вид битрейта : Постоянный
Битрейт : 192 Кбит/сек
Каналы : 2 канала
Расположение каналов : Front: L R
Частота : 48,0 КГц
Битовая глубина : 16 бит
Метод сжатия : С потерями
Размер потока : 109 Мбайт (7%)
Язык : Russian
Аудио #2
Идентификатор : 3
Формат : AC-3
Формат/Информация : Audio Coding 3
Расширение режима : CM (complete main)
Идентификатор кодека : A_AC3
Продолжительность : 1 ч. 19 м.
Вид битрейта : Постоянный
Битрейт : 448 Кбит/сек
Каналы : 2 канала
Расположение каналов : Front: L R
Частота : 48,0 КГц
Битовая глубина : 16 бит
Метод сжатия : С потерями
Размер потока : 255 Мбайт (17%)
Язык : English
Текст #1
Идентификатор : 4
Формат : UTF-8
Идентификатор кодека : S_TEXT/UTF8
Идентификатор кодека/Информация : UTF-8 Plain Text
Язык : Russian
Текст #2
Идентификатор : 5
Формат : UTF-8
Идентификатор кодека : S_TEXT/UTF8
Идентификатор кодека/Информация : UTF-8 Plain Text
Язык : English
Меню
00:00:00.000 : en:Chapter 01
00:06:49.992 : en:Chapter 02
00:08:55.993 : en:Chapter 03
00:13:03.991 : en:Chapter 04
00:16:21.605 : en:Chapter 05
00:19:22.578 : en:Chapter 06
00:30:38.628 : en:Chapter 07
00:45:06.954 : en:Chapter 08
00:56:06.529 : en:Chapter 09
01:00:54.651 : en:Chapter 10
01:12:09.575 : en:Chapter 11
01:16:08.522 : en:Chapter 12
01:19:34.728 : en:Chapter 13

Скриншоты

Яндекс.Метрика
Рейтинг@Mail.ru