Трейсеры / Tracers (2015) WEB-DLRip-AVC | L

 

Создавать темы 29-Апр-2015 14:57

-Трейсеры / Tracers (2015)- Информация о фильме Название: Трейсеры Оригинальное название: Tracers Год выпуска: 2015 Жанр: боевик Режиссер: Даниэль Бенмаур В ролях: Тейлор Лотнер, Мари Авгеропулос, Рафи Гаврон, Адам Рэйнер, Сэм Медина, Доа Моа, Лучиано Акуна мл., Даг Драклер, Эндрю Элвис Миллер, Эдвард М. Келахэн О фильме: История велокурьера по имени Кэм только кажется простой. Доставлять посылки и правда не самая сложная работа. Но однажды парень попадает в аварию и сбивает с ног неизвестно откуда взявшуюся красавицу. С этого момента жизнь Кэма начинает меняться настолько быстро и неожиданно, что сложно уследить. Он попадает в мир этой самой девушки и её друзей, в мир опасностей и культа тела, в мир точных расчетов и рисков – в мир паркура. Но от старых проблем просто так не убежать, даже если ты мастер паркура. Мафия всегда найдет своих должников и заставит их заплатить. Выпущено: США / Cowtown Cinema Ventures, Freerunning, Saban Films Продолжительность: 01:34:05 Озвучивание: Любительское (многоголосое) [Студия Пиратского Дубляжа] Файл Качество: WEB-DLRip (AVC) Видео: MPEG-4 AVC, 1875 Кбит/с, 1024x424 Аудио: Русский, aнглийский (AC3, 6 ch, 384 Кбит/с) Субтитры: Английские

MI

General
Unique ID : 203374589874247722355956346960939872819 (0x99008571130D02B5A38623251EC47233)
Complete name : C:Tracers.2015.P.WEB-DLRip.AVC.ExKinoRay.mkv
Format : Matroska
Format version : Version 4 / Version 2
File size : 1.74 GiB
Duration : 1h 34mn
Overall bit rate : 2 643 Kbps
Movie name : Tracers 2015 from ExKinoRay
Encoded date : UTC 2015-04-14 02:16:59
Writing application : mkvmerge v6.6.0 ('The Edge Of The In Between') built on Dec 1 2013 17:55:00
Writing library : libebml v1.3.0 + libmatroska v1.4.1
Video
ID : 1
Format : AVC
Format/Info : Advanced Video Codec
Format profile : [email protected]
Format settings, CABAC : Yes
Format settings, ReFrames : 10 frames
Codec ID : V_MPEG4/ISO/AVC
Duration : 1h 34mn
Bit rate : 1 875 Kbps
Width : 1 024 pixels
Height : 424 pixels
Display aspect ratio : 2.40:1
Frame rate mode : Constant
Frame rate : 23.976 fps
Color space : YUV
Chroma subsampling : 4:2:0
Bit depth : 8 bits
Scan type : Progressive
Bits/(Pixel*Frame) : 0.180
Stream size : 1.20 GiB (69%)
Title : Enigma
Writing library : x264 core 133 r2334 a3ac64b
Encoding settings : cabac=1 / ref=10 / deblock=1:-2:-2 / analyse=0x3:0x113 / me=umh / subme=10 / psy=1 / psy_rd=1.05:0.15 / mixed_ref=1 / me_range=32 / chroma_me=1 / trellis=2 / 8x8dct=1 / cqm=0 / deadzone=21,11 / fast_pskip=0 / chroma_qp_offset=-3 / threads=12 / lookahead_threads=2 / sliced_threads=0 / nr=0 / decimate=0 / interlaced=0 / bluray_compat=0 / constrained_intra=0 / bframes=9 / b_pyramid=2 / b_adapt=2 / b_bias=0 / direct=3 / weightb=1 / open_gop=0 / weightp=2 / keyint=240 / keyint_min=23 / scenecut=40 / intra_refresh=0 / rc=2pass / mbtree=0 / bitrate=1875 / ratetol=1.0 / qcomp=0.60 / qpmin=0 / qpmax=51 / qpstep=4 / cplxblur=20.0 / qblur=0.5 / ip_ratio=1.40 / pb_ratio=1.30 / aq=1:1.00
Default : Yes
Forced : No
Color primaries : BT.709
Transfer characteristics : BT.709
Matrix coefficients : BT.709
Audio #1
ID : 2
Format : AC-3
Format/Info : Audio Coding 3
Mode extension : CM (complete main)
Format settings, Endianness : Big
Codec ID : A_AC3
Duration : 1h 34mn
Bit rate mode : Constant
Bit rate : 384 Kbps
Channel(s) : 6 channels
Channel positions : Front: L C R, Side: L R, LFE
Sampling rate : 48.0 KHz
Bit depth : 16 bits
Compression mode : Lossy
Stream size : 258 MiB (15%)
Language : Russian
Default : Yes
Forced : No
Audio #2
ID : 3
Format : AC-3
Format/Info : Audio Coding 3
Mode extension : CM (complete main)
Format settings, Endianness : Big
Codec ID : A_AC3
Duration : 1h 34mn
Bit rate mode : Constant
Bit rate : 384 Kbps
Channel(s) : 6 channels
Channel positions : Front: L C R, Side: L R, LFE
Sampling rate : 48.0 KHz
Bit depth : 16 bits
Compression mode : Lossy
Stream size : 258 MiB (15%)
Language : English
Default : No
Forced : No
Text
ID : 4
Format : UTF-8
Codec ID : S_TEXT/UTF8
Codec ID/Info : UTF-8 Plain Text
Language : English
Default : No
Forced : No
Menu
00:00:00.000 : en:Chapter 1
00:03:37.000 : en:Chapter 2
00:14:34.000 : en:Chapter 3
00:20:05.000 : en:Chapter 4
00:27:01.000 : en:Chapter 5
00:36:06.000 : en:Chapter 6
00:43:15.000 : en:Chapter 7
00:54:59.000 : en:Chapter 8
01:01:59.000 : en:Chapter 9
01:10:37.000 : en:Chapter 10
01:16:49.000 : en:Chapter 11
01:24:53.000 : en:Chapter 12
01:28:28.000 : en:Chapter 13

Скриншоты

Яндекс.Метрика
Рейтинг@Mail.ru