Мотель Бейтс / Bates Motel / Сезон: 3 / Серии: 1-8 из 10 (Такер Гейтс) [2015, ужасы, триллер, детектив, WEB-DL 720p] MVO (BaibaKo) + Original

 

Создавать темы 29-Апр-2015 02:56

--Мотель Бейтс / Bates Motel-- Год выпуска: 2015
Страна: США
Жанр: ужасы, триллер, детектив
Продолжительность: ~43 мин.
Перевод: Профессиональный (многоголосый закадровый) BaibaKo
Режиссёр: Такер Гейтс
В ролях: Кэролайн Мэтьюз, Вера Фармига, Фредди Хаймор, Джер Бернс, Мерседес Де Ла Зерда, Мэтт Эллис, Кончита Кэмпбелл, Майк Фогель, Нестор Карбонелл, У. Эрл Браун, Оливия Кук, Эммалин Эстрада, Ричард Хэрмон, Никола Пельтц, Дженна Романин, Макс Тириот, Киган Коннор Трейси, Бриттни Уилсон, Алийа О’Брайен, Александр Кэлверт и др.
Описание: Сериал "Мотель Бейтс" от создателей "Остаться в живых" снят по мотивам культового фильма Альфреда Хичкока «Психо» 1960 года, рассказывает о жизни Нормана Бейтса и его матери Нормы до тех событий. Зрители видят, как формировалась психика Нормана Бейтса в подростковые годы. Это тёмная и запутанная предыстория, рассказывающая о сложных взаимоотношениях Нормана с матерью и о том, как она повлияла на становление известного серийного убийцы. После трагической смерти мужа Норма Бейтс покупает мотель близ идиллического прибрежного города Уайт-Пайн Бэй, чтобы начать с чистого листа. Пока Норма и Норман устраиваются в новом доме, они обнаруживают, что этот город не совсем такой, как кажется, и местные жители не желают раскрывать свои тайны. Ситуация становится опасной, и Бейтсы сделают всё, чтобы выжить ─ и всё, чтобы защитить собственные тайны.
Доп. информация:
Перевод: vipere
Озвучка: Юлия Котурбаш, Лира Грим, Алексей Кузнецов и Артемий Мирон
Обложка: Антон Максимов
Ссылка на предыдущие и альтернативные раздачи: http://rutracker.org/forum/tracker.php?max=1&nm=bates+motel
Сэмпл: https://yadi.sk/i/s0ds1l1KfemtM
Качество: WEB-DL 720p
Контейнер: MKV
Видео: AVC ([email protected]), 1280х720, 16:9, 23.976 fps, 3801-3960 kbps
Аудио 1: русский, AC3, 48 kHz, 6 ch, 384 kbps
Аудио 2: английский (оригинал), AC3, 48 kHz, 6 ch, 384 kbps
Субтитры: отсутствуют

MediaInfo

Общее
Уникальный идентификатор : 223402192456924134225653815832291319242 (0xA811B27C519FE2509327660412E41DCA)
Полное имя : C:\Users\Alex\Downloads\Bates.Motel.s03.HD720p.WEB-DL.Rus.Eng.BaibaKo\Bates.Motel.s03e01.HD720p.WEB-DL.Rus.Eng.BaibaKo.mkv
Формат : Matroska
Версия формата : Version 4 / Version 2
Размер файла : 1,40 Гбайт
Продолжительность : 42 м.
Общий поток : 4667 Кбит/сек
Название фильма : BaibaKo.tv presents - Мотель Бейтс 3х01
Дата кодирования : UTC 2015-03-31 10:48:08
Программа кодирования : mkvmerge v7.8.0 ('River Man') 64bit built on Mar 27 2015 16:31:37
Библиотека кодирования : libebml v1.3.1 + libmatroska v1.4.2
DURATION : 00:42:53.472000000
NUMBER_OF_FRAMES : 80421
NUMBER_OF_BYTES : 123526656
_STATISTICS_WRITING_APP : mkvmerge v7.8.0 ('River Man') 64bit built on Mar 27 2015 16:31:37
_STATISTICS_WRITING_DATE_UTC : 2015-03-31 10:48:08
_STATISTICS_TAGS : BPS DURATION NUMBER_OF_FRAMES NUMBER_OF_BYTES
Видео
Идентификатор : 1
Формат : AVC
Формат/Информация : Advanced Video Codec
Профиль формата : [email protected]
Параметр CABAC формата : Нет
Параметр ReFrames формата : 2 кадра
Идентификатор кодека : V_MPEG4/ISO/AVC
Продолжительность : 42 м.
Битрейт : 3806 Кбит/сек
Ширина : 1280 пикселей
Высота : 720 пикселей
Соотношение сторон : 16:9
Режим частоты кадров : Постоянный
Частота кадров : 23,976 кадра/сек
Цветовое пространство : YUV
Субдискретизация насыщенности : 4:2:0
Битовая глубина : 8 бит
Тип развёртки : Прогрессивная
Бит/(Пиксели*Кадры) : 0.172
Размер потока : 1,14 Гбайт (82%)
Язык : English
Default : Да
Forced : Нет
Основные цвета : BT.709
Характеристики трансфера : BT.709
Коэффициенты матрицы : BT.709
colour_range : Limited
Аудио #1
Идентификатор : 2
Формат : AC-3
Формат/Информация : Audio Coding 3
Расширение режима : CM (complete main)
Параметр Endianness формата : Big
Идентификатор кодека : A_AC3
Продолжительность : 42 м.
Вид битрейта : Постоянный
Битрейт : 384 Кбит/сек
Каналы : 6 каналов
Расположение каналов : Front: L C R, Side: L R, LFE
Частота : 48,0 КГц
Битовая глубина : 16 бит
Метод сжатия : С потерями
Размер потока : 118 Мбайт (8%)
Заголовок : Rus BaibaKo.tv DD5.1
Язык : Russian
Default : Да
Forced : Нет
Аудио #2
Идентификатор : 3
Формат : AC-3
Формат/Информация : Audio Coding 3
Расширение режима : CM (complete main)
Параметр Endianness формата : Big
Идентификатор кодека : A_AC3
Продолжительность : 42 м.
Вид битрейта : Постоянный
Битрейт : 384 Кбит/сек
Каналы : 6 каналов
Расположение каналов : Front: L C R, Side: L R, LFE
Частота : 48,0 КГц
Битовая глубина : 16 бит
Метод сжатия : С потерями
Размер потока : 118 Мбайт (8%)
Заголовок : Original DD5.1
Язык : English
Default : Нет
Forced : Нет

Скриншоты

--
Яндекс.Метрика
Рейтинг@Mail.ru