Мордекай / Mortdecai (2015) BDRip

 

Создавать темы 29-Апр-2015 00:15

--Мордекай / Mortdecai (2015) BDRip-- Производство: США / Infinitum Nihil Production, Mad Chance Productions, Mort Productions, Odd Lot Entertainment
Жанр: Боевик, Комедия
Режиссер: Дэвид Кепп
Продюсер: Кристи Дембровски, Джонни Депп, Эндрю Лазар
Актеры: Джонни Депп, Гвинет Пэлтроу, Пол Беттани, Эван МакГрегор, Оливия Манн, Джонатон Пасвольски, Майкл Калкин, Ульрих Томсен, Алек Утгофф, Роб де Гроот, Гай Бернет, Джефф Голдблюм, Антти Хакала, Пол Уайтхаус, Норма Аталла, Николас Фэррел, Карл Теобалд, Камилла Бипут, Майкл Бирн, Эмили Лоуренс
Описание:
В центре сюжета — история Чарльза Мордекая, обходительного арт-дельца и жулика по совместительству, который путешествует по всему миру и с помощью своего неотразимого обаяния пытается раздобыть украденную картину. По слухам, в этом произведении искусства содержится код доступа к банковской ячейке, наполненной нацистским золотом. По ходу Мордекаю приходится улаживать дела с недобрыми русскими, британской разведкой Mi5, международным террористом и со своей умопомрачительно длинноногой женой.- -Дата мировой премьеры: 21 января 2015
Дата премьеры в РФ: 18 июня 2015, «West»
Продолжительность: 01:46:44
Качество видео: BDRip
Перевод: Многоголосый закадровый, профессиональный, Одноголосый закадровый
Субтитры: Вшитые отключаемые
Язык субтитров: Английский
Видео: AVC/H.264, ~5817 kbps, 1280 x 536, 23,976 fps
Аудио 1: Русский, AC3 2.0, 384 kbps, 48 kHz (MVO)
Аудио 2: Русский, AC3 2.0, 192 kbps, 48 kHz (VO)
Аудио 3: Английский, DTS 5.1, 1509 kbps, 48 kHz (Original)

Знаете ли вы, что...

• Дом турецкого фермера и его дочери ранее использовался на съемках фильма «Бэйб: Четвероногий малыш» (1995).
• У фильма не было предварительного показа для кинокритиков.
• Изначально на главную женскую роль продюсеры рассматривали кандидатуру Кэрис ван Хаутен, но в итоге роль досталась Гвинет Пэлтроу.
• Зубы у персонажа Джонни Деппа – это отсылка к легендарному британскому актеру — Терри-Томасу.
• Бритва, которую Гвинет Пэлтроу использует для бритья усов Джонни Деппа, это та же самая бритва, что использовалась в фильме «Суини Тодд, демон-парикмахер с Флит-стрит» (2007).

Mediainfo:

Код:
Общее
Уникальный идентификатор : 199789549843120117764580435572803442835 (0x964E1152497DC0D2B8DA953B01831893)
Полное имя : D:\Films\Mortdecai.2015.720p.BDRip.mkv
Формат : Matroska
Версия формата : Version 2
Размер файла : 5,89 Гбайт
Продолжительность : 1 ч. 46 м.
Общий поток : 7899 Кбит/сек
Дата кодирования : UTC 2015-04-28 16:59:45
Программа кодирования : mkvmerge v5.2.0 ('I can't explain') built on Dec 18 2011 18:12:03
Библиотека кодирования : libebml v1.2.3 + libmatroska v1.3.0
Видео
Идентификатор : 1
Формат : AVC
Формат/Информация : Advanced Video Codec
Профиль формата : [email protected]
Параметр CABAC формата : Да
Параметр ReFrames формата : 5 кадров
Идентификатор кодека : V_MPEG4/ISO/AVC
Продолжительность : 1 ч. 46 м.
Битрейт : 5817 Кбит/сек
Ширина : 1280 пикселей
Высота : 536 пикселей
Соотношение сторон : 2,40:1
Режим частоты кадров : Постоянный
Частота кадров : 23,976 кадра/сек
Цветовое пространство : YUV
Субдискретизация насыщенности : 4:2:0
Битовая глубина : 8 бит
Тип развёртки : Прогрессивная
Бит/(Пиксели*Кадры) : 0.354
Размер потока : 4,22 Гбайт (72%)
Библиотека кодирования : x264 core 144 r2525 40bb568
Настройки программы : cabac=1 / ref=5 / deblock=1:0:0 / analyse=0x3:0x133 / me=umh / subme=7 / psy=1 / psy_rd=1.00:0.00 / mixed_ref=1 / me_range=16 / chroma_me=1 / trellis=1 / 8x8dct=1 / cqm=0 / deadzone=21,11 / fast_pskip=0 / chroma_qp_offset=-2 / threads=60 / lookahead_threads=4 / sliced_threads=0 / nr=0 / decimate=1 / interlaced=0 / bluray_compat=0 / constrained_intra=0 / bframes=3 / b_pyramid=2 / b_adapt=1 / b_bias=0 / direct=1 / weightb=1 / open_gop=0 / weightp=2 / keyint=250 / keyint_min=23 / scenecut=40 / intra_refresh=0 / rc_lookahead=40 / rc=2pass / mbtree=1 / bitrate=5817 / ratetol=1.0 / qcomp=0.60 / qpmin=0 / qpmax=69 / qpstep=4 / cplxblur=20.0 / qblur=0.5 / ip_ratio=1.40 / aq=1:1.00
Язык : English
Default : Да
Forced : Нет
Аудио #1
Идентификатор : 2
Формат : AC-3
Формат/Информация : Audio Coding 3
Расширение режима : CM (complete main)
Параметр Endianness формата : Big
Идентификатор кодека : A_AC3
Продолжительность : 1 ч. 46 м.
Вид битрейта : Постоянный
Битрейт : 384 Кбит/сек
Каналы : 2 канала
Расположение каналов : Front: L R
Частота : 48,0 КГц
Битовая глубина : 16 бит
Метод сжатия : С потерями
Размер потока : 293 Мбайт (5%)
Заголовок : MVO
Язык : Russian
Default : Да
Forced : Нет
Аудио #2
Идентификатор : 3
Формат : AC-3
Формат/Информация : Audio Coding 3
Расширение режима : CM (complete main)
Параметр Endianness формата : Big
Идентификатор кодека : A_AC3
Продолжительность : 1 ч. 46 м.
Вид битрейта : Постоянный
Битрейт : 192 Кбит/сек
Каналы : 2 канала
Расположение каналов : Front: L R
Частота : 48,0 КГц
Битовая глубина : 16 бит
Метод сжатия : С потерями
Размер потока : 147 Мбайт (2%)
Заголовок : VO
Язык : Russian
Default : Нет
Forced : Нет
Аудио #3
Идентификатор : 4
Формат : DTS
Формат/Информация : Digital Theater Systems
Режим : 16
Параметр Endianness формата : Big
Идентификатор кодека : A_DTS
Продолжительность : 1 ч. 46 м.
Вид битрейта : Постоянный
Битрейт : 1509 Кбит/сек
Каналы : 6 каналов
Расположение каналов : Front: L C R, Side: L R, LFE
Частота : 48,0 КГц
Битовая глубина : 24 бит
Метод сжатия : С потерями
Размер потока : 1,13 Гбайт (19%)
Заголовок : Original
Язык : English
Default : Нет
Forced : Нет
Текст
Идентификатор : 5
Формат : UTF-8
Идентификатор кодека : S_TEXT/UTF8
Идентификатор кодека/Информация : UTF-8 Plain Text
Язык : English
Default : Нет
Forced : Нет
Меню
00:00:00.000 : en:00:00:00.000
00:05:04.179 : en:00:05:04.179
00:11:31.232 : en:00:11:31.232
00:18:52.548 : en:00:18:52.548
00:24:04.151 : en:00:24:04.151
00:29:49.496 : en:00:29:49.496
00:36:55.797 : en:00:36:55.797
00:42:51.611 : en:00:42:51.611
00:50:03.375 : en:00:50:03.375
00:56:39.688 : en:00:56:39.688
01:03:47.699 : en:01:03:47.699
01:10:07.244 : en:01:10:07.244
01:18:45.304 : en:01:18:45.304
01:24:56.424 : en:01:24:56.424
01:28:58.083 : en:01:28:58.083
01:33:49.248 : en:01:33:49.248
Скриншоты:
Яндекс.Метрика
Рейтинг@Mail.ru