Работорговля / Skin Trade (2014) WEB-DL [H.264/720p-LQ]

 

Создавать темы 27-Апр-2015 14:10

-Работорговля / Skin Trade (2014) WEB-DL [H.264/720p]- Производство: США, Таиланд, Канада | Baumgarten Management and Productions (BMP), SC Films International, SC International Pictures
Жанр: Боевик, Триллер-Режиссер: Экачай Уэкронгтам
Актеры: Рон Перлман, Дольф Лундгрен, Питер Уэллер, Майкл Джей Уайт, Тони Джа, Селина Жаде, Конан Стивенс, Кэри-Хироюки Тагава, Тася Телес, Майк Допуд-Описание:
Подпольная, теневая торговля, чёрный рынок — синонимы одной из острейших и наболевших проблем современного общества. Но сбыт человеческих органов — ещё более страшная реальность, с которой сталкивается герой столь непростой истории. Полицейский-детектив расследует дело о похищении и вероятности продажи «на органы» одной девушки.
Распутывая клубок гениально спланированного преступления, он лицом к лицу сталкивается с целой подпольной системой, рынком рабов, в котором свои заправилы и боссы являются вершителями судеб сотен и тысяч невинных и беззащитных. Приоткрыв завесу над кошмаром во плоти, простому копу придётся вступить в неравную борьбу с представителями рынка, в борьбу, из которой практически невозможно выйти победителем
Дата мировой премьеры: 7 ноября 2014
Продолжительность: 01:35:48
Качество видео: WEB-DL 720p-LQ
Перевод: двуголосый закадровый, любительский (ColdFilm)
Язык субтитров: Английский
Вид субтитров: Вшитые, отключаемые
Видео: MPEG-4/H.264 AVC, 1280x530 (2.40:1), 23.976 fps, 3 989 Kbps (0.245 bit/pixel)
Аудио #1: AC-3, 48.0 KHz, 2 ch, 192 Kbps, CBR (Русский)
Аудио #2: AC-3, 48.0 KHz, 6 ch, 384 Kbps, CBR (Английский)
Сэмпл: Скачать

Mediainfo:

Complete name                          \Skin.Trade.(2014).WEB-DL.720p.mkv
Format                                   : Matroska
Format version                           : Version 4 / Version 2
File size                                : 3.11 GiB
Duration                                 : 1h 35mn
Overall bit rate                         : 4 655 Kbps
Encoded date                             : UTC 2015-04-26 20:10:52
Writing application                      : mkvmerge v6.1.0 ('Old Devil') built on Mar  4 2013 09:10:42
Writing library                          : libebml v1.3.0 + libmatroska v1.4.0
Video
ID                                       : 1
Format                                   : AVC
Format/Info                              : Advanced Video Codec
Format profile                           : [url=mailto:[email protected]][email protected][/url]
Format settings, CABAC                   : No
Format settings, ReFrames                : 2 frames
Codec ID                                 : V_MPEG4/ISO/AVC
Duration                                 : 1h 35mn
Bit rate                                 : 3 986 Kbps
Width                                    : 1 280 pixels
Height                                   : 530 pixels
Display aspect ratio                     : 2.40:1
Frame rate mode                          : Constant
Frame rate                               : 23.976 fps
Color space                              : YUV
Chroma subsampling                       : 4:2:0
Bit depth                                : 8 bits
Scan type                                : Progressive
Bits/(Pixel*Frame)                       : 0.245
Stream size                              : 2.67 GiB (86%)
Language                                 : English
Default                                  : Yes
Forced                                   : No
Color primaries                          : BT.709
Transfer characteristics                 : BT.709
Matrix coefficients                      : BT.709
Audio #1
ID                                       : 2
Format                                   : AC-3
Format/Info                              : Audio Coding 3
Mode extension                           : CM (complete main)
Format settings, Endianness              : Big
Codec ID                                 : A_AC3
Duration                                 : 1h 35mn
Bit rate mode                            : Constant
Bit rate                                 : 192 Kbps
Channel(s)                               : 2 channels
Channel positions                        : Front: L R
Sampling rate                            : 48.0 KHz
Bit depth                                : 16 bits
Compression mode                         : Lossy
Stream size                              : 132 MiB (4%)
Language                                 : Russian
Default                                  : Yes
Forced                                   : No
Audio #2
ID                                       : 3
Format                                   : AC-3
Format/Info                              : Audio Coding 3
Mode extension                           : CM (complete main)
Format settings, Endianness              : Big
Codec ID                                 : A_AC3
Duration                                 : 1h 35mn
Bit rate mode                            : Constant
Bit rate                                 : 384 Kbps
Channel(s)                               : 6 channels
Channel positions                        : Front: L C R, Side: L R, LFE
Sampling rate                            : 48.0 KHz
Bit depth                                : 16 bits
Compression mode                         : Lossy
Stream size                              : 263 MiB (8%)
Language                                 : English
Default                                  : No
Forced                                   : No
Text
ID                                       : 4
Format                                   : UTF-8
Codec ID                                 : S_TEXT/UTF8
Codec ID/Info                            : UTF-8 Plain Text
Language                                 : English
Default                                  : No
Forced                                   : No
Menu
00:00:00.000                             : en:1
00:03:15.000                             : en:2
00:11:08.000                             : en:3
00:18:40.000                             : en:4
00:23:27.000                             : en:5
00:29:37.000                             : en:6
00:34:53.000                             : en:7
00:39:44.000                             : en:8
00:47:12.000                             : en:9
00:50:53.000                             : en:10
00:55:48.000                             : en:11
01:01:09.000                             : en:12
01:06:21.000                             : en:13
01:14:04.000                             : en:14
01:20:46.000                             : en:15
01:28:28.000                             : en:16
Скриншоты:
Яндекс.Метрика
Рейтинг@Mail.ru