1915 / 1915 (2015) WEB-DLRip [H.264/720p-LQ]

 

Создавать темы 26-Апр-2015 22:52

--1915 / 1915 (2015) WEB-DLRip [H.264/720p-LQ]--
    • Производство: США / Bloodvine Media, Santisound, Strongman
    • Жанр: Драма
    • Режиссер: Карин Ованнисян, Алек Мухибян
    • Продюсер: Карин Ованнисян, Терри Леонард, Алек Мухибян, Фиона Уолш
    • Актеры: Симон Абкарян, Анджела Сарафян, Сэмюэл Пейдж, Николай Кински, Джим Пиддок, Дебра Кристофферсон, Кристофер Клауси, Майлс Крэнфорд, Марк Форгет, Роберт Холлак
    • Описание:
      2015 год. Режиссер старейшего театра Лос-Анджелеса ставит пьесу памяти жертв геноцида армянского народа — преступления, которое не было признано исполнителями и через столетие. Но постановка вызывает в обществе новые приступы ненависти и ксенофобии, а серия необъяснимых происшествий в театре повергает труппу в мистический ужас. Никто не знал, что магия спектакля — в тайне, которую скрывает жена режиссера, загадочная и прекрасная актриса Анжелa.
- -
    • Дата мировой премьеры: 17.04.2015
    • Дата премьеры в РФ: 23.04.2015, «Парадиз»
    • Продолжительность: 01:22:58
    • Качество видео: WEB-DL
    • Язык: Русский / Английский
    • Перевод: Двухголосый закадровый, любительский (Студия Пиратского Дубляжа)
    • Видеокодек: AVC/H.264
    • Битрейт видео: ~4000 kbps
    • Размер кадра: 1280x688
    • Аудио #1: AC3 5.1, 384 Кбит/сек - Двуголосый закадровый [Ru]
    • Аудио #2: AC3 5.1, 384 Кбит/сек - Оригинальная звуковая дорожка [En]

Mediainfo:

Код:
General
Unique ID : 200698841719807027797818355173445265251 (0x96FD30DF4B591FA1B821C356C182E763)
Complete name : 1915.2015.WEBDLRip.720p.mkv
Format : Matroska
Format version : Version 4 / Version 2
File size : 2.71 GiB
Duration : 1h 22mn
Overall bit rate : 4 682 Kbps
Movie name : 1915.2015.P.WEBRip.720p.ELEKTRI4KA.uniongang.tv
Encoded date : UTC 2015-04-25 13:32:39
Writing application : mkvmerge v7.7.0 ('Six Voices') 32bit built on Feb 28 2015 23:23:00
Writing library : libebml v1.3.1 + libmatroska v1.4.2
DURATION : 01:22:57.856000000
NUMBER_OF_FRAMES : 155558
NUMBER_OF_BYTES : 238937088
_STATISTICS_WRITING_APP : mkvmerge v7.7.0 ('Six Voices') 32bit built on Feb 28 2015 23:23:00
_STATISTICS_WRITING_DATE_UTC : 2015-04-25 13:32:39
_STATISTICS_TAGS : BPS DURATION NUMBER_OF_FRAMES NUMBER_OF_BYTES
Video #1
ID : 1
Format : AVC
Format/Info : Advanced Video Codec
Format profile : [email protected]
Format settings, CABAC : Yes
Format settings, ReFrames : 4 frames
Codec ID : V_MPEG4/ISO/AVC
Duration : 1h 22mn
Bit rate : 4 000 Kbps
Width : 1 280 pixels
Height : 688 pixels
Display aspect ratio : 1.85:1
Frame rate mode : Constant
Frame rate : 23.976 fps
Color space : YUV
Chroma subsampling : 4:2:0
Bit depth : 8 bits
Scan type : Progressive
Bits/(Pixel*Frame) : 0.189
Stream size : 2.21 GiB (82%)
Title : 1915.2015.P.WEBRip.720p.ELEKTRI4KA.uniongang.tv
Writing library : x264 core 119 r2106 07efeb4
Encoding settings : cabac=1 / ref=4 / deblock=1:-3:-3 / analyse=0x3:0x133 / me=hex / subme=3 / psy=1 / psy_rd=1.00:0.00 / mixed_ref=0 / me_range=16 / chroma_me=1 / trellis=2 / 8x8dct=1 / cqm=0 / deadzone=21,11 / fast_pskip=1 / chroma_qp_offset=0 / threads=12 / sliced_threads=0 / nr=0 / decimate=1 / interlaced=0 / bluray_compat=0 / constrained_intra=0 / bframes=4 / b_pyramid=2 / b_adapt=1 / b_bias=0 / direct=1 / weightb=0 / open_gop=0 / weightp=2 / keyint=250 / keyint_min=23 / scenecut=40 / intra_refresh=0 / rc_lookahead=60 / rc=abr / mbtree=1 / bitrate=4000 / ratetol=1.0 / qcomp=0.60 / qpmin=0 / qpmax=69 / qpstep=4 / ip_ratio=1.40 / aq=1:1.00
Language : English
Default : Yes
Forced : No
DURATION : 01:22:58.023000000
NUMBER_OF_FRAMES : 119353
NUMBER_OF_BYTES : 2434313334
_STATISTICS_WRITING_APP : mkvmerge v7.7.0 ('Six Voices') 32bit built on Feb 28 2015 23:23:00
_STATISTICS_WRITING_DATE_UTC : 2015-04-25 13:32:39
_STATISTICS_TAGS : BPS DURATION NUMBER_OF_FRAMES NUMBER_OF_BYTES
Audio #2
ID : 2
Format : AC-3
Format/Info : Audio Coding 3
Mode extension : CM (complete main)
Format settings, Endianness : Big
Codec ID : A_AC3
Duration : 1h 22mn
Bit rate mode : Constant
Bit rate : 384 Kbps
Channel(s) : 6 channels
Channel positions : Front: L C R, Side: L R, LFE
Sampling rate : 48.0 KHz
Bit depth : 16 bits
Compression mode : Lossy
Stream size : 228 MiB (8%)
Title : 1915.2015.P.WEBRip.720p.ELEKTRI4KA.uniongang.tv
Language : Russian
Default : Yes
Forced : No
Audio #3
ID : 3
Format : AC-3
Format/Info : Audio Coding 3
Mode extension : CM (complete main)
Format settings, Endianness : Big
Codec ID : A_AC3
Duration : 1h 22mn
Bit rate mode : Constant
Bit rate : 384 Kbps
Channel(s) : 6 channels
Channel positions : Front: L C R, Side: L R, LFE
Sampling rate : 48.0 KHz
Bit depth : 16 bits
Compression mode : Lossy
Stream size : 228 MiB (8%)
Title : 1915.2015.P.WEBRip.720p.ELEKTRI4KA.uniongang.tv
Language : English
Default : No
Forced : No
Скриншоты:
Яндекс.Метрика
Рейтинг@Mail.ru