Вернись ко мне / Come Back to Me (2014) DVDRip [H.264] [VO]

 

Создавать темы 26-Апр-2015 12:28

--Вернись ко мне / Come Back to Me (2014) DVDRip--
    • Производство: США, Base Productions, Idiot Savant Pictures, Sin City Films
    • Жанр: Ужасы
    • Режиссер: Пол Лейден
      Актеры: Кэти Уолдер, Кэролайн Клементс, Лаура Гордон, Нэйтан Кийес, Мэтт Пассмор, Брайан Патакка, Стив Риззо, Александра Штраус, Мойра Уэст
    • Описание фильма:
      Приходя в себя после автокатастрофы, молодожены Сара и Джош обнаруживают, что в доме по соседству поселился чудаковатый парень по имени Дел. Сразу после этого каждую ночь Сару стали преследовать кошмары, в которых ее с мужем жестоко убивают, а по утру их дом просто сверкает чистотой. Пытаясь разобраться в ситуации, Сара начинает подозревать, что умирает каждую ночь она не только во сне…
- -
    • Дата мировой премьеры: 25 июля 2014
    • Продолжительность: 01:36:07
    • Качество видео: DVDRip [psychd]
    • Перевод: Одноголосый закадровый, любительский
    • Озвучка / Автор перевода: Роман Коточигов (ViruseProject)
    • Субтитры: Вшитые отключаемые
    • Язык субтитров: Английский (полные, SDH)
    • Навигация по главам: Есть (12)
    • Видеокодек: AVC/H.264
    • Битрейт видео: ~774 Кбит/с
    • Размер кадра: 720x306
    • Аудио #1: AC3, 48.0 kHz, 2 ch, 192 kbps (Русский)
    • Аудио #2: AC3, 48.0 kHz, 2 ch, 192 kbps (Английский)

MediaInfo:

      Код:
      Общее
      Уникальный идентификатор : 231879618489230865642366775733366054518 (0xAE7263DBE644595F9190ECCF64EC5E76)
      Полное имя : Come.Back.to.Me.2014.DVDRip.VO.NNM-CLUB.mkv
      Формат : Matroska
      Версия формата : Version 4 / Version 2
      Размер файла : 812 Мбайт
      Продолжительность : 1 ч. 36 м.
      Общий поток : 1182 Кбит/сек
      Название фильма : Вернись ко мне / Come Back to Me (2014)
      Дата кодирования : UTC 2015-04-26 06:11:29
      Программа кодирования : mkvmerge v7.8.0 ('River Man') 64bit built on Mar 27 2015 16:31:37
      Библиотека кодирования : libebml v1.3.1 + libmatroska v1.4.2
      Attachements : cover.jpg
      DURATION : 01:35:13.056000000
      NUMBER_OF_FRAMES : 178533
      NUMBER_OF_BYTES : 137113344
      _STATISTICS_WRITING_APP : mkvmerge v7.8.0 ('River Man') 64bit built on Mar 27 2015 16:31:37
      _STATISTICS_WRITING_DATE_UTC : 2015-04-26 06:11:29
      _STATISTICS_TAGS : BPS DURATION NUMBER_OF_FRAMES NUMBER_OF_BYTES
      Видео
      Идентификатор : 1
      Формат : AVC
      Формат/Информация : Advanced Video Codec
      Профиль формата : [email protected]
      Параметр CABAC формата : Да
      Параметр ReFrames формата : 5 кадров
      Идентификатор кодека : V_MPEG4/ISO/AVC
      Продолжительность : 1 ч. 36 м.
      Битрейт : 774 Кбит/сек
      Ширина : 720 пикселей
      Высота : 306 пикселей
      Соотношение сторон : 2,35:1
      Режим частоты кадров : Постоянный
      Частота кадров : 23,976 кадра/сек
      Цветовое пространство : YUV
      Субдискретизация насыщенности : 4:2:0
      Битовая глубина : 8 бит
      Тип развёртки : Прогрессивная
      Бит/(Пиксели*Кадры) : 0.147
      Размер потока : 532 Мбайт (66%)
      Заголовок : come.back.to.me.2014.limited.dvdrip.x264-psychd
      Библиотека кодирования : x264 core 144 r2525 40bb568
      Настройки программы : cabac=1 / ref=5 / deblock=1:-2:-2 / analyse=0x3:0x113 / me=umh / subme=8 / psy=1 / psy_rd=1.00:0.00 / mixed_ref=1 / me_range=16 / chroma_me=1 / trellis=1 / 8x8dct=1 / cqm=0 / deadzone=21,11 / fast_pskip=1 / chroma_qp_offset=-2 / threads=18 / lookahead_threads=2 / sliced_threads=0 / nr=0 / decimate=1 / interlaced=0 / bluray_compat=0 / constrained_intra=0 / bframes=3 / b_pyramid=2 / b_adapt=2 / b_bias=0 / direct=3 / weightb=1 / open_gop=0 / weightp=2 / keyint=240 / keyint_min=24 / scenecut=40 / intra_refresh=0 / rc_lookahead=50 / rc=crf / mbtree=1 / crf=19.0 / qcomp=0.60 / qpmin=0 / qpmax=69 / qpstep=4 / ip_ratio=1.40 / aq=1:0.70
      Default : Да
      Forced : Нет
      DURATION : 01:36:06.761000000
      NUMBER_OF_FRAMES : 138264
      NUMBER_OF_BYTES : 574674384
      _STATISTICS_WRITING_APP : mkvmerge v7.8.0 ('River Man') 64bit built on Mar 27 2015 16:31:37
      _STATISTICS_WRITING_DATE_UTC : 2015-04-26 06:11:29
      _STATISTICS_TAGS : BPS DURATION NUMBER_OF_FRAMES NUMBER_OF_BYTES
      Аудио #1
      Идентификатор : 2
      Формат : AC-3
      Формат/Информация : Audio Coding 3
      Расширение режима : CM (complete main)
      Параметр Endianness формата : Big
      Идентификатор кодека : A_AC3
      Продолжительность : 1 ч. 36 м.
      Вид битрейта : Постоянный
      Битрейт : 192 Кбит/сек
      Каналы : 2 канала
      Расположение каналов : Front: L R
      Частота : 48,0 КГц
      Битовая глубина : 16 бит
      Метод сжатия : С потерями
      Размер потока : 132 Мбайт (16%)
      Заголовок : Одноголосый, от Романа Коточигова (ViruseProject)
      Язык : Russian
      Default : Да
      Forced : Нет
      Аудио #2
      Идентификатор : 3
      Формат : AC-3
      Формат/Информация : Audio Coding 3
      Расширение режима : CM (complete main)
      Параметр Endianness формата : Big
      Идентификатор кодека : A_AC3
      Продолжительность : 1 ч. 36 м.
      Вид битрейта : Постоянный
      Битрейт : 192 Кбит/сек
      Каналы : 2 канала
      Расположение каналов : Front: L R
      Частота : 48,0 КГц
      Битовая глубина : 16 бит
      Метод сжатия : С потерями
      Размер потока : 132 Мбайт (16%)
      Заголовок : English, original
      Язык : English
      Default : Нет
      Forced : Нет
      Текст #1
      Идентификатор : 4
      Формат : UTF-8
      Идентификатор кодека : S_TEXT/UTF8
      Идентификатор кодека/Информация : UTF-8 Plain Text
      Заголовок : full
      Язык : English
      Default : Нет
      Forced : Нет
      Текст #2
      Идентификатор : 5
      Формат : UTF-8
      Идентификатор кодека : S_TEXT/UTF8
      Идентификатор кодека/Информация : UTF-8 Plain Text
      Заголовок : SDH
      Язык : English
      Default : Нет
      Forced : Нет
      Меню
      00:00:00.000 : en:Chapter 1
      00:09:12.900 : en:Chapter 2
      00:19:02.900 : en:Chapter 3
      00:28:11.033 : en:Chapter 4
      00:38:02.567 : en:Chapter 5
      00:46:15.900 : en:Chapter 6
      00:55:32.400 : en:Chapter 7
      01:04:16.067 : en:Chapter 8
      01:12:58.700 : en:Chapter 9
      01:19:36.733 : en:Chapter 10
      01:25:59.467 : en:Chapter 11
      01:32:53.967 : en:Chapter 12

Подтверждение подлинности диска от источника (psychd):

Скриншоты:

Дополнительные Скриншоты:

Яндекс.Метрика
Рейтинг@Mail.ru