(Шансон, Pop) [CD] Елена Ваенга - Коллекция 2 альбома 3 CD [Живая струна, The Best] - 2011 - 2014, FLAC (image+.cue), lossless

 

Создавать темы 26-Апр-2015 08:58

Елена Ваенга / Коллекция 2 альбома 3 CD [Живая струна, The Best] Жанр: Шансон, Pop
Носитель: CD
Страна-производитель диска: Россия
Год издания: 2011 - 2014
Издатель (лейбл): Под спойлерами
Номер по каталогу: Под спойлерами
Страна исполнителя (группы): Россия
Аудиокодек: FLAC (*.flac)
Тип рипа: image+.cue
Битрейт аудио: lossless
Продолжительность: 03:47:06
Источник (релизер): Рипы с личных оригиналов
Наличие сканов в содержимом раздачи: Да (600 DPI)
Треклист:

2011 - Серия «Живая струна»

Страна-производитель диска: Россия
Год издания диска: 2011
Издатель (лейбл): Квадро-Диск
Номер по каталогу: KTL 11-617
Продолжительность: 01:11:38

01. Аргентина
02. Оловянное сердце
03. Калина
04. Города
05. Папа нарисуй
06. Абсент
07. Клавиши
08. Лена
09. Говори
10. Девочка
11. Золотая рыбка
12. Тайга
13. Косолапая любовь
14. Мамочка
15. Фиолетовая тень
16. Курю
17.Н аливай
18. Косы

2014 - The Best

Страна-производитель диска: Россия
Год издания диска: 2014
Издатель (лейбл): Квадро-Диск & United Music Group
Номер по каталогу: UMGCD14-032~1,2
Продолжительность: 02:35:28

CD 1 - 01:19:57


01. Курю
02. Принцесса
03. Золотая рыбка
04. Ре, ля
05. Где была?
06. Внутри
07. Радуга
08. Абсент
09. Больно
10. Ванечка
11. Виски
12. Жаль
13. Лена
14. Девочка
15. Наливай
16. Гуцулочка
17. Мосты
18. Пашка
19. Невеста
20. Ордынка
21. Желаю
22. Елена Ваенга feat Александр Малинин - Две души

EAC

Exact Audio Copy V1.0 beta 3 from 29. August 2011
Отчёт EAC об извлечении, выполненном 8. ноября 2014, 10:47
Елена Ваенга / The Best [CD 1]
Дисковод: Optiarc DVD RW AD-5200S Adapter: 3 ID: 0
Режим чтения : Достоверность
Использование точного потока : Да
Отключение кэша аудио : Да
Использование указателей C2 : Нет
Коррекция смещения при чтении : 48
Способность читать области Lead-in и Lead-out : Нет
Заполнение пропущенных сэмплов тишиной : Да
Удаление блоков с тишиной в начале и конце : Нет
При вычислениях CRC использовались нулевые сэмплы : Да
Интерфейс : Установленный внешний ASPI-интерфейс
Выходной формат : Пользовательский кодировщик
Выбранный битрейт : 768 kBit/s
Качество : Высокий
Добавление ID3-тега : Нет
Утилита сжатия : C:\Program Files\Exact Audio Copy\FLAC\FLAC.EXE
Дополнительные параметры : -6 -V -T "ARTIST=%artist%" -T "TITLE=%title%" -T "ALBUM=%albumtitle%" -T "DATE=%year%" -T "TRACKNUMBER=%tracknr%" -T "GENRE=%genre%" -T "COMMENT=%comment%" -T "BAND=%albuminterpret%" -T "ALBUMARTIST=%albuminterpret%" -T "COMPOSER=%composer%" %haslyrics%--tag-from-file=LYRICS="%lyricsfile%"%haslyrics% -T "DISCNUMBER=%cdnumber%" -T "TOTALDISCS=%totalcds%" -T "TOTALTRACKS=%numtracks%" %hascover%--picture="%coverfile%"%hascover% %source% -o %dest%
TOC извлечённого CD
Трек | Старт | Длительность | Начальный сектор | Конечный сектор
---------------------------------------------------------------------
1 | 0:00.00 | 5:08.48 | 0 | 23147
2 | 5:08.48 | 3:42.31 | 23148 | 39828
3 | 8:51.04 | 2:51.42 | 39829 | 52695
4 | 11:42.46 | 3:51.54 | 52696 | 70074
5 | 15:34.25 | 2:52.53 | 70075 | 83027
6 | 18:27.03 | 4:17.44 | 83028 | 102346
7 | 22:44.47 | 3:26.33 | 102347 | 117829
8 | 26:11.05 | 3:20.24 | 117830 | 132853
9 | 29:31.29 | 4:34.24 | 132854 | 153427
10 | 34:05.53 | 3:29.59 | 153428 | 169161
11 | 37:35.37 | 4:58.17 | 169162 | 191528
12 | 42:33.54 | 3:12.59 | 191529 | 205987
13 | 45:46.38 | 3:24.58 | 205988 | 221345
14 | 49:11.21 | 4:21.01 | 221346 | 240921
15 | 53:32.22 | 3:22.23 | 240922 | 256094
16 | 56:54.45 | 3:07.43 | 256095 | 270162
17 | 60:02.13 | 3:44.32 | 270163 | 286994
18 | 63:46.45 | 3:18.12 | 286995 | 301856
19 | 67:04.57 | 3:05.35 | 301857 | 315766
20 | 70:10.17 | 3:40.58 | 315767 | 332324
21 | 73:51.00 | 2:34.02 | 332325 | 343876
22 | 76:25.02 | 3:32.40 | 343877 | 359816
Характеристики диапазона извлечения и сообщения об ошибках
Выбранный диапазон
Имя файла F:\LOSSLESS\Елена Ваенга\2014 - The Best\CD 1\Елена Ваенга - The Best [CD 1].wav
Пиковый уровень 98.8 %
Скорость извлечения 4.5 X
Качество диапазона 100.0 %
CRC теста 74417255
CRC копии 74417255
Копирование... OK
Ошибок не произошло
AccurateRip: сводка
Трек 1 отсутствует в базе данных
Трек 2 отсутствует в базе данных
Трек 3 отсутствует в базе данных
Трек 4 отсутствует в базе данных
Трек 5 отсутствует в базе данных
Трек 6 отсутствует в базе данных
Трек 7 отсутствует в базе данных
Трек 8 отсутствует в базе данных
Трек 9 отсутствует в базе данных
Трек 10 отсутствует в базе данных
Трек 11 отсутствует в базе данных
Трек 12 отсутствует в базе данных
Трек 13 отсутствует в базе данных
Трек 14 отсутствует в базе данных
Трек 15 отсутствует в базе данных
Трек 16 отсутствует в базе данных
Трек 17 отсутствует в базе данных
Трек 18 отсутствует в базе данных
Трек 19 отсутствует в базе данных
Трек 20 отсутствует в базе данных
Трек 21 отсутствует в базе данных
Трек 22 отсутствует в базе данных
Ни одного трека нет в базе AccurateRip
Конец отчёта
==== Контрольная сумма отчёта 4844D617A42410B861E67D6D72EB42E3570F9209DD5B8DD4F42C96A64C09BE2D ====

Содержание индексной карты (.CUE)

REM GENRE "Шансон, Pop"
REM DATE 2014
REM DISCID 3712BD16
REM COMMENT "ExactAudioCopy v1.0b3"
PERFORMER "Елена Ваенга"
TITLE "The Best [CD 1]"
FILE "Елена Ваенга - The Best [CD 1].flac" WAVE
TRACK 01 AUDIO
TITLE "Курю"
PERFORMER "Елена Ваенга"
INDEX 01 00:00:00
TRACK 02 AUDIO
TITLE "Принцесса"
PERFORMER "Елена Ваенга"
INDEX 00 05:07:48
INDEX 01 05:08:48
TRACK 03 AUDIO
TITLE "Золотая рыбка"
PERFORMER "Елена Ваенга"
INDEX 00 08:50:04
INDEX 01 08:51:04
TRACK 04 AUDIO
TITLE "Ре, ля"
PERFORMER "Елена Ваенга"
INDEX 00 11:41:46
INDEX 01 11:42:46
TRACK 05 AUDIO
TITLE "Где была?"
PERFORMER "Елена Ваенга"
INDEX 00 15:33:25
INDEX 01 15:34:25
TRACK 06 AUDIO
TITLE "Внутри"
PERFORMER "Елена Ваенга"
INDEX 00 18:26:03
INDEX 01 18:27:03
TRACK 07 AUDIO
TITLE "Радуга"
PERFORMER "Елена Ваенга"
INDEX 00 22:43:47
INDEX 01 22:44:47
TRACK 08 AUDIO
TITLE "Абсент"
PERFORMER "Елена Ваенга"
INDEX 00 26:10:05
INDEX 01 26:11:05
TRACK 09 AUDIO
TITLE "Больно"
PERFORMER "Елена Ваенга"
INDEX 00 29:30:29
INDEX 01 29:31:29
TRACK 10 AUDIO
TITLE "Ванечка"
PERFORMER "Елена Ваенга"
INDEX 00 34:04:53
INDEX 01 34:05:53
TRACK 11 AUDIO
TITLE "Виски"
PERFORMER "Елена Ваенга"
INDEX 00 37:34:37
INDEX 01 37:35:37
TRACK 12 AUDIO
TITLE "Жаль"
PERFORMER "Елена Ваенга"
INDEX 00 42:32:54
INDEX 01 42:33:54
TRACK 13 AUDIO
TITLE "Лена"
PERFORMER "Елена Ваенга"
INDEX 00 45:45:38
INDEX 01 45:46:38
TRACK 14 AUDIO
TITLE "Девочка"
PERFORMER "Елена Ваенга"
INDEX 00 49:10:21
INDEX 01 49:11:21
TRACK 15 AUDIO
TITLE "Наливай"
PERFORMER "Елена Ваенга"
INDEX 00 53:31:22
INDEX 01 53:32:22
TRACK 16 AUDIO
TITLE "Гуцулочка"
PERFORMER "Елена Ваенга"
INDEX 00 56:53:45
INDEX 01 56:54:45
TRACK 17 AUDIO
TITLE "Мосты"
PERFORMER "Елена Ваенга"
INDEX 00 60:01:13
INDEX 01 60:02:13
TRACK 18 AUDIO
TITLE "Пашка"
PERFORMER "Елена Ваенга"
INDEX 00 63:45:45
INDEX 01 63:46:45
TRACK 19 AUDIO
TITLE "Невеста"
PERFORMER "Елена Ваенга"
INDEX 00 67:03:57
INDEX 01 67:04:57
TRACK 20 AUDIO
TITLE "Ордынка"
PERFORMER "Елена Ваенга"
INDEX 00 70:09:17
INDEX 01 70:10:17
TRACK 21 AUDIO
TITLE "Желаю"
PERFORMER "Елена Ваенга"
INDEX 00 73:50:00
INDEX 01 73:51:00
TRACK 22 AUDIO
TITLE "Две души"
PERFORMER "Елена Ваенга feat Александр Малинин"
INDEX 00 76:24:02
INDEX 01 76:25:02

CD 2 - 01:15:31


01. Аэропорт
02. Клавиши
03. Оловянное сердце
04. Шопен
05. Говори, говори
06. Папа, нарисуй
07. Ты
08. Реснички
09. Косолапая любовь
10. Мама ты была права
11. Тайга
12. Сложная песня
13. Дюны
14. По моей щеке
15. Города
16. Письмо
17. Скучаю [Пальцы]
18. Мы попали с тобой под дождь
19. Кони
20. Мостики
21. Белая птица
22. Елена Ваенга feat Алена Петровская - Полынь-трава

EAC

Exact Audio Copy V1.0 beta 3 from 29. August 2011
Отчёт EAC об извлечении, выполненном 8. ноября 2014, 11:29
Елена Ваенга / The Best [CD 2]
Дисковод: Optiarc DVD RW AD-5200S Adapter: 3 ID: 0
Режим чтения : Достоверность
Использование точного потока : Да
Отключение кэша аудио : Да
Использование указателей C2 : Нет
Коррекция смещения при чтении : 48
Способность читать области Lead-in и Lead-out : Нет
Заполнение пропущенных сэмплов тишиной : Да
Удаление блоков с тишиной в начале и конце : Нет
При вычислениях CRC использовались нулевые сэмплы : Да
Интерфейс : Установленный внешний ASPI-интерфейс
Выходной формат : Пользовательский кодировщик
Выбранный битрейт : 768 kBit/s
Качество : Высокий
Добавление ID3-тега : Нет
Утилита сжатия : C:\Program Files\Exact Audio Copy\FLAC\FLAC.EXE
Дополнительные параметры : -6 -V -T "ARTIST=%artist%" -T "TITLE=%title%" -T "ALBUM=%albumtitle%" -T "DATE=%year%" -T "TRACKNUMBER=%tracknr%" -T "GENRE=%genre%" -T "COMMENT=%comment%" -T "BAND=%albuminterpret%" -T "ALBUMARTIST=%albuminterpret%" -T "COMPOSER=%composer%" %haslyrics%--tag-from-file=LYRICS="%lyricsfile%"%haslyrics% -T "DISCNUMBER=%cdnumber%" -T "TOTALDISCS=%totalcds%" -T "TOTALTRACKS=%numtracks%" %hascover%--picture="%coverfile%"%hascover% %source% -o %dest%
TOC извлечённого CD
Трек | Старт | Длительность | Начальный сектор | Конечный сектор
---------------------------------------------------------------------
1 | 0:00.00 | 3:16.63 | 0 | 14762
2 | 3:16.63 | 3:50.05 | 14763 | 32017
3 | 7:06.68 | 3:21.36 | 32018 | 47128
4 | 10:28.29 | 3:57.69 | 47129 | 64972
5 | 14:26.23 | 4:29.66 | 64973 | 85213
6 | 18:56.14 | 2:30.37 | 85214 | 96500
7 | 21:26.51 | 3:08.09 | 96501 | 110609
8 | 24:34.60 | 3:05.71 | 110610 | 124555
9 | 27:40.56 | 3:06.04 | 124556 | 138509
10 | 30:46.60 | 2:27.52 | 138510 | 149586
11 | 33:14.37 | 4:49.36 | 149587 | 171297
12 | 38:03.73 | 4:30.63 | 171298 | 191610
13 | 42:34.61 | 2:40.29 | 191611 | 203639
14 | 45:15.15 | 3:29.31 | 203640 | 219345
15 | 48:44.46 | 1:15.59 | 219346 | 225029
16 | 50:00.30 | 4:04.15 | 225030 | 243344
17 | 54:04.45 | 3:02.13 | 243345 | 257007
18 | 57:06.58 | 3:25.18 | 257008 | 272400
19 | 60:32.01 | 3:49.41 | 272401 | 289616
20 | 64:21.42 | 3:26.41 | 289617 | 305107
21 | 67:48.08 | 4:04.32 | 305108 | 323439
22 | 71:52.40 | 3:38.55 | 323440 | 339844
Характеристики диапазона извлечения и сообщения об ошибках
Выбранный диапазон
Имя файла F:\LOSSLESS\Елена Ваенга\2014 - The Best\CD 2\Елена Ваенга - The Best [CD 2].wav
Пиковый уровень 96.5 %
Скорость извлечения 4.4 X
Качество диапазона 100.0 %
CRC теста 45F9158D
CRC копии 45F9158D
Копирование... OK
Ошибок не произошло
AccurateRip: сводка
Трек 1 отсутствует в базе данных
Трек 2 отсутствует в базе данных
Трек 3 отсутствует в базе данных
Трек 4 отсутствует в базе данных
Трек 5 отсутствует в базе данных
Трек 6 отсутствует в базе данных
Трек 7 отсутствует в базе данных
Трек 8 отсутствует в базе данных
Трек 9 отсутствует в базе данных
Трек 10 отсутствует в базе данных
Трек 11 отсутствует в базе данных
Трек 12 отсутствует в базе данных
Трек 13 отсутствует в базе данных
Трек 14 отсутствует в базе данных
Трек 15 отсутствует в базе данных
Трек 16 отсутствует в базе данных
Трек 17 отсутствует в базе данных
Трек 18 отсутствует в базе данных
Трек 19 отсутствует в базе данных
Трек 20 отсутствует в базе данных
Трек 21 отсутствует в базе данных
Трек 22 отсутствует в базе данных
Ни одного трека нет в базе AccurateRip
Конец отчёта
==== Контрольная сумма отчёта 2033B81EA35C53062EDAA4BFA4EE528F2976FCCED6B7BFE37E37C87799DA2BA0 ====

Содержание индексной карты (.CUE)

REM GENRE "Шансон, Pop"
REM DATE 2014
REM DISCID 5811B316
REM COMMENT "ExactAudioCopy v1.0b3"
PERFORMER "Елена Ваенга"
TITLE "The Best [CD 2]"
FILE "Елена Ваенга - The Best [CD 2].flac" WAVE
TRACK 01 AUDIO
TITLE "Аэропорт"
PERFORMER "Елена Ваенга"
INDEX 01 00:00:00
TRACK 02 AUDIO
TITLE "Клавиши"
PERFORMER "Елена Ваенга"
INDEX 00 03:14:63
INDEX 01 03:16:63
TRACK 03 AUDIO
TITLE "Оловянное сердце"
PERFORMER "Елена Ваенга"
INDEX 00 07:04:68
INDEX 01 07:06:68
TRACK 04 AUDIO
TITLE "Шопен"
PERFORMER "Елена Ваенга"
INDEX 00 10:26:29
INDEX 01 10:28:29
TRACK 05 AUDIO
TITLE "Говори, говори"
PERFORMER "Елена Ваенга"
INDEX 00 14:24:23
INDEX 01 14:26:23
TRACK 06 AUDIO
TITLE "Папа, нарисуй"
PERFORMER "Елена Ваенга"
INDEX 00 18:54:14
INDEX 01 18:56:14
TRACK 07 AUDIO
TITLE "Ты"
PERFORMER "Елена Ваенга"
INDEX 00 21:24:51
INDEX 01 21:26:51
TRACK 08 AUDIO
TITLE "Реснички"
PERFORMER "Елена Ваенга"
INDEX 00 24:32:60
INDEX 01 24:34:60
TRACK 09 AUDIO
TITLE "Косолапая любовь"
PERFORMER "Елена Ваенга"
INDEX 00 27:38:56
INDEX 01 27:40:56
TRACK 10 AUDIO
TITLE "Мама ты была права"
PERFORMER "Елена Ваенга"
INDEX 00 30:44:60
INDEX 01 30:46:60
TRACK 11 AUDIO
TITLE "Тайга"
PERFORMER "Елена Ваенга"
INDEX 00 33:12:37
INDEX 01 33:14:37
TRACK 12 AUDIO
TITLE "Сложная песня"
PERFORMER "Елена Ваенга"
INDEX 00 38:01:73
INDEX 01 38:03:73
TRACK 13 AUDIO
TITLE "Дюны"
PERFORMER "Елена Ваенга"
INDEX 00 42:32:61
INDEX 01 42:34:61
TRACK 14 AUDIO
TITLE "По моей щеке"
PERFORMER "Елена Ваенга"
INDEX 00 45:13:15
INDEX 01 45:15:15
TRACK 15 AUDIO
TITLE "Города"
PERFORMER "Елена Ваенга"
INDEX 00 48:42:46
INDEX 01 48:44:46
TRACK 16 AUDIO
TITLE "Письмо"
PERFORMER "Елена Ваенга"
INDEX 00 49:58:30
INDEX 01 50:00:30
TRACK 17 AUDIO
TITLE "Скучаю [Пальцы]"
PERFORMER "Елена Ваенга"
INDEX 00 54:02:45
INDEX 01 54:04:45
TRACK 18 AUDIO
TITLE "Мы попали с тобо под дождь"
PERFORMER "Елена Ваенга"
INDEX 00 57:04:58
INDEX 01 57:06:58
TRACK 19 AUDIO
TITLE "Кони"
PERFORMER "Елена Ваенга"
INDEX 00 60:30:01
INDEX 01 60:32:01
TRACK 20 AUDIO
TITLE "Мостики"
PERFORMER "Елена Ваенга"
INDEX 00 64:19:42
INDEX 01 64:21:42
TRACK 21 AUDIO
TITLE "Белая птица"
PERFORMER "Елена Ваенга"
INDEX 00 67:46:08
INDEX 01 67:48:08
TRACK 22 AUDIO
TITLE "Полынь-трава"
PERFORMER "Елена Ваенга feat Алена Петровская"
INDEX 00 71:50:40
INDEX 01 71:52:40
Яндекс.Метрика
Рейтинг@Mail.ru