Скорпион / Scorpion / Сезон 1 / Серии: 1-22 из 22 (Гэри Фледер / Gary Fleder, ...) [2014г., боевик, драма, ... WEB-DL 1080р] MVO (BaibaKo) + Original (Eng)

 

Создавать темы 25-Апр-2015 20:06

Скорпион / Scorpion
«This team is pure genius»
- Русское название: Скорпион
Оригинальное название: Scorpion
Страна: США
Год выпуска: 2014
Жанр: боевик, драма, ...-Релиз:
Перевод: Многоголосый закадровый, профессиональный
Оригинальный аудиопоток: английский-Над релизом работали:
Перевод: Татьяна Saavick
Озвучка: Anna_Smile, Юлия Котурбаш, Андрей Корзаченко, Виталий Ткаченко и Олекса Мельник
Монтаж: Виталий Ткаченко
Обложка: tvblog-Премьера (мир): 22 сентября 2014-Режиссер: Гэри Фледер / Gary Fleder, Дуайт Х. Литтл / Dwight H. Little, Бобби Рот / Bobby Roth, ...
В главных ролях: Элиес Габел, Кэтрин МакФи, Эри Стидэм, Эдди Кэй Томас, Джейдин Вонг, Эмили Робинсон, Роберт Патрик, Рис Риос, ...-Описание фильма:
Сюжет основан на реальных событиях. Это история об эксцентричном гении и его группе вундеркиндов. Они являются аналитическим центром, работающим на службу национальной безопасности, и их задача — разбираться со сложными угрозами современности.-Сезон: 1
Серии: 22 из 22 серий
Продолжительность: ~ 00:41:00 мин серия-Качество видео: WEB-DL 1080p
Формат: MKV
Видеокодек: AVC ([email protected])
Аудиокодек: AC-3
Видео: AVC at 4652 Кбит/сек: 1920 x 1080 (1.778) at 23.976 fps
Аудио Rus: AC-3 at 384 Кбит/сек: 6 канала, 48,0 КГц |BaibaKo|
Аудио Eng: AC-3 at 384 Кбит/сек: 6 канала, 48,0 КГц |Original|
Cубтитры: отсутствуют
-

Список серий:

01. Пилот
02. Единственная неудача
03. Циклон
04. Ловкость рук
05. Плутоний навсегда
06. Истинное я
07. День отца
08. Рискованный бизнес
09. Преступный элемент
10. Талисманы
11. Возмездие
12. Домино
13. Смертельная игра
14. Шарады
15. Незабудки
16. Лодка любви
17. На юг
18. Однажды укушенный боится и ужа
19. Огонь юных сердец
20. Перекрестки
21.Над пропастью
22.Открытки с края бездны
-

MediaInfo:

[pre]
Общее
Уникальный идентификатор                 : 244657510826092039144540387410632458267 (0xB80F529759A9D01795EFB82FA277401B)
Полное имя                               : E:\_Сериалы\Скорпион\Scorpion.s01.BaibaKo\Scorpion.s01e01.HD1080p.WEB-DL.Rus.Eng.BaibaKo.tv.mkv
Формат                                   : Matroska
Версия формата                           : Version 4 / Version 2
Размер файла                             : 1,60 Гбайт
Продолжительность                        : 41 м.
Общий поток                              : 5530 Кбит/сек
Дата кодирования                         : UTC 2014-09-24 00:45:29
Программа кодирования                    : mkvmerge v6.7.0 ('Back to the Ground') 64bit built on Jan  8 2014 15:10:52
Библиотека кодирования                   : libebml v1.3.0 + libmatroska v1.4.1
Видео
Идентификатор                            : 1
Формат                                   : AVC
Формат/Информация                        : Advanced Video Codec
Профиль формата                          : [email protected]
Параметр CABAC формата                   : Да
Параметр ReFrames формата                : 4 кадра
Идентификатор кодека                     : V_MPEG4/ISO/AVC
Продолжительность                        : 41 м.
Битрейт                                  : 4652 Кбит/сек
Ширина                                   : 1920 пикселей
Высота                                   : 1080 пикселей
Соотношение сторон                       : 16:9
Режим частоты кадров                     : Постоянный
Частота кадров                           : 23,976 кадра/сек
Цветовое пространство                    : YUV
Субдискретизация насыщенности            : 4:2:0
Битовая глубина                          : 8 бит
Тип развёртки                            : Прогрессивная
Бит/(Пиксели*Кадры)                      : 0.094
Размер потока                            : 1,35 Гбайт (84%)
Язык                                     : English
Default                                  : Да
Forced                                   : Нет
Основные цвета                           : BT.709
Характеристики трансфера                 : BT.709
Коэффициенты матрицы                     : BT.709
Аудио #1
Идентификатор                            : 2
Формат                                   : AC-3
Формат/Информация                        : Audio Coding 3
Расширение режима                        : CM (complete main)
Параметр Endianness формата              : Big
Идентификатор кодека                     : A_AC3
Продолжительность                        : 41 м.
Вид битрейта                             : Постоянный
Битрейт                                  : 384 Кбит/сек
Каналы                                   : 6 каналов
Расположение каналов                     : Front: L C R, Side: L R, LFE
Частота                                  : 48,0 КГц
Битовая глубина                          : 16 бит
Метод сжатия                             : С потерями
Размер потока                            : 114 Мбайт (7%)
Язык                                     : Russian
Default                                  : Да
Forced                                   : Нет
Аудио #2
Идентификатор                            : 3
Формат                                   : AC-3
Формат/Информация                        : Audio Coding 3
Расширение режима                        : CM (complete main)
Параметр Endianness формата              : Big
Идентификатор кодека                     : A_AC3
Продолжительность                        : 41 м.
Вид битрейта                             : Постоянный
Битрейт                                  : 384 Кбит/сек
Каналы                                   : 6 каналов
Расположение каналов                     : Front: L C R, Side: L R, LFE
Частота                                  : 48,0 КГц
Битовая глубина                          : 16 бит
Метод сжатия                             : С потерями
Размер потока                            : 114 Мбайт (7%)
Язык                                     : English
Default                                  : Нет
Forced                                   : Нет
[/pre]
-

Скриншот c названием фильма

Скриншоты:

--
Яндекс.Метрика
Рейтинг@Mail.ru