Пирамида / The Pyramid (Грегори Левассёр / Grégory Levasseur) [2014 г., ужасы, BDRip, 1080p] Dub [iTunes] + Original (Eng)

 

Создавать темы 25-Апр-2015 19:50

-Пирамида / The Pyramid-- Производство: США / Fox International Productions (FIP), Sahara Productions, Silvatar Media
Год выпуска: 2014 г.
Жанр: ужасы
Продолжительность: 01:29:00
Мировая премьера: 4 декабря 2014
Российская премьера: 4 декабря 2014, «Двадцатый Век Фокс СНГ»
Перевод: Профессиональный (полное дублирование) [iTunes]
Оригинальный аудиопоток: английский
Режиссер: Грегори Левассёр / Grégory Levasseur-В ролях: Эшли Хиншоу, Дэнис О’Хэйр, Джеймс Бакли, Криста Никола, Амир Камиаб, Файкал Аттугуй, Филип Шелли, Аит Хаму Амин, Омар Бенбрахим, Джозеф Бедделем-Описание: Группа американских археологов раскапывает древнюю пирамиду, расположенную глубоко под египетской пустыней. Когда они начинают исследовать внутренние помещения пирамиды, то безнадежно теряются в ее бесконечных темных катакомбах.-Качество видео: BDRip
Контейнер: MKV
Стандарт разрешения: 1080p
Видео кодек: MPEG4 AVC
Аудио кодек: AC3
Видео: MPEG-4 AVC, 9050 Кбит/с, 1920x816, 25 fps, 0.287 bit / pix
Аудио: Russian: 48 kHz, AC3 Dolby Digital, 3/2 (L,C,R,l,r) + LFE ch, ~384 kbps
Аудио #2: English: 48 kHz, DTS, 1510 Kb/s (6 ch)
Cубтитры: отсутствуют

Media Info

General
Complete name : W:\Piramida.2014.D.BDRip.1080p.mkv
Format : Matroska
File size : 6.78 GiB
Duration : 1h 28mn
Overall bit rate : 10.9 Mbps
Encoded date : UTC 2015-04-24 01:13:47
Writing application : mkvmerge v7.5.0 ('Glass Culture') 64bit built on Jan 4 2015 16:48:44
Writing library : libebml v1.3.1 + libmatroska v1.4.2
Video
ID : 1
Format : AVC
Format/Info : Advanced Video Codec
Format profile : [email protected]
Format settings, CABAC : Yes
Format settings, ReFrames : 5 frames
Format settings, GOP : M=4, N=16
Muxing mode : Container [email protected]
Codec ID : V_MPEG4/ISO/AVC
Duration : 1h 28mn
Bit rate : 9 050 Kbps
Width : 1 920 pixels
Height : 816 pixels
Display aspect ratio : 2.35:1
Frame rate : 23.976 fps
Color space : YUV
Chroma subsampling : 4:2:0
Bit depth : 8 bits
Scan type : Progressive
Bits/(Pixel*Frame) : 0.241
Stream size : 5.47 GiB (81%)
Writing library : x264 core 144 r2525 40bb568
Encoding settings : cabac=1 / ref=5 / deblock=1:0:0 / analyse=0x3:0x133 / me=umh / subme=7 / psy=1 / psy_rd=1.00:0.00 / mixed_ref=1 / me_range=16 / chroma_me=1 / trellis=1 / 8x8dct=1 / cqm=0 / deadzone=21,11 / fast_pskip=0 / chroma_qp_offset=-2 / threads=60 / lookahead_threads=6 / sliced_threads=0 / nr=0 / decimate=1 / interlaced=0 / bluray_compat=0 / constrained_intra=0 / bframes=3 / b_pyramid=2 / b_adapt=1 / b_bias=0 / direct=1 / weightb=1 / open_gop=0 / weightp=2 / keyint=250 / keyint_min=23 / scenecut=40 / intra_refresh=0 / rc_lookahead=40 / rc=2pass / mbtree=1 / bitrate=9050 / ratetol=1.0 / qcomp=0.60 / qpmin=0 / qpmax=69 / qpstep=4 / cplxblur=20.0 / qblur=0.5 / ip_ratio=1.40 / aq=1:1.00
Audio #1
ID : 2
Format : AC-3
Format/Info : Audio Coding 3
Mode extension : CM (complete main)
Codec ID : A_AC3
Duration : 1h 28mn
Bit rate mode : Constant
Bit rate : 384 Kbps
Channel(s) : 6 channels
Channel positions : Front: L C R, Side: L R, LFE
Sampling rate : 48.0 KHz
Bit depth : 16 bits
Stream size : 244 MiB (4%)
Language : Russian
Audio #2
ID : 3
Format : DTS
Format/Info : Digital Theater Systems
Codec ID : A_DTS
Duration : 1h 28mn
Bit rate mode : Constant
Bit rate : 1 510 Kbps
Channel(s) : 6 channels
Channel positions : Front: L C R, Side: L R, LFE
Sampling rate : 48.0 KHz
Bit depth : 24 bits
Stream size : 960 MiB (14%)
Menu
00:00:00.000 : en:00:00:00.000
00:03:06.728 : en:00:03:06.728
00:06:55.582 : en:00:06:55.582
00:10:30.129 : en:00:10:30.129
00:12:45.348 : en:00:12:45.348
00:15:36.602 : en:00:15:36.602
00:19:16.072 : en:00:19:16.072
00:23:56.018 : en:00:23:56.018
00:27:03.664 : en:00:27:03.664
00:31:27.010 : en:00:31:27.010
00:34:00.455 : en:00:34:00.455
00:36:29.854 : en:00:36:29.854
00:38:03.198 : en:00:38:03.198
00:41:04.879 : en:00:41:04.879
00:43:01.579 : en:00:43:01.579
00:46:38.838 : en:00:46:38.838
00:48:49.593 : en:00:48:49.593
00:52:33.317 : en:00:52:33.317
00:55:36.959 : en:00:55:36.959
00:58:21.540 : en:00:58:21.540
01:02:53.937 : en:01:02:53.937
01:07:24.415 : en:01:07:24.415
01:09:40.051 : en:01:09:40.051
01:11:47.762 : en:01:11:47.762
01:15:47.001 : en:01:15:47.001
01:18:32.458 : en:01:18:32.458
01:21:48.195 : en:01:21:48.195
01:23:52.694 : en:01:23:52.694

Скриншоты

Яндекс.Метрика
Рейтинг@Mail.ru