Заложница 3 / Taken 3 (2014 г.) BDRip 720p | 60fps

 

Создавать темы 25-Апр-2015 10:14

Заложница 3 / Taken 3- Год выпуска: 2014 г.
Жанр: боевик, триллер
Страна: Франция
Режиссер: Оливье Мегатон
Продолжительность: 01:48:57
Перевод: Профессиональный (дублированный)
В ролях:
Лиам Нисон, Мэгги Грэйс, Форест Уитакер, Сэм Спруэлл, Фамке Янссен, Дюгрей Скотт, Дон Харви, Дилан Бруно, Лиленд Орсер, Дэвид Уоршофски-Описание: Брайан Миллс — бывший правительственный агент, который не раз выходил из самых сложных ситуаций. Он является настоящим профессионалом своего дела и больше всего в жизни любит свою семью, ради которой готов на все. Оставив свое боевое прошлое он старается вести мирную жизнь, но, однажды, ему вновь приходится взяться за оружие. Неизвестные убивают его бывшую жену Лэнни и делают все так, чтобы главным подозреваемым в этом преступлении стал именно Брайан. Ему удается сбежать от полиции, после чего он пытается сделать все возможное, чтобы найти настоящего убийцу. Однако сделать это будет очень непросто, поскольку его преследует опытный детектив, от которого не смог уйти еще ни один преступник...-Формат видео: MKV
Качество видео: BDRip 720p | 60fps | Исходник BDRemux
Видео кодек: H.264
Аудио кодек: AC3
Видео: 1280x536 (2.35:1), 59.940 fps, AVC, 6 224 Kbps
Аудио: AC3, 448 Kbps, 48.0 KHz, 6 ch-

Отчёт MediaInfo

General
Complete name : Заложница 3 - 60fps.mkv
Format : Matroska
File size : 5.18 GiB
Duration : 1h 48mn
Overall bit rate : 6 808 Kbps
Encoded date : UTC 2015-04-24 16:32:20
Writing application : mkvmerge v7.8.0 ('River Man') 64bit built on Mar 27 2015 16:31:37
Writing library : libebml v1.3.1 + libmatroska v1.4.2
Video
ID : 1
Format : AVC
Format/Info : Advanced Video Codec
Format profile : [email protected]
Format settings, CABAC : Yes
Format settings, ReFrames : 6 frames
Muxing mode : Container [email protected]
Codec ID : V_MPEG4/ISO/AVC
Duration : 1h 48mn
Bit rate : 6 224 Kbps
Width : 1 280 pixels
Height : 536 pixels
Display aspect ratio : 2.35:1
Frame rate : 59.940 fps
Color space : YUV
Chroma subsampling : 4:2:0
Bit depth : 8 bits
Scan type : Progressive
Bits/(Pixel*Frame) : 0.151
Stream size : 4.74 GiB (91%)
Writing library : x264 core 130 r2273 b3065e6
Encoding settings : cabac=1 / ref=6 / deblock=1:0:0 / analyse=0x3:0x113 / me=tesa / subme=11 / psy=1 / psy_rd=1.00:0.00 / mixed_ref=1 / me_range=42 / chroma_me=1 / trellis=2 / 8x8dct=1 / cqm=0 / deadzone=21,11 / fast_pskip=1 / chroma_qp_offset=-2 / threads=12 / lookahead_threads=1 / sliced_threads=0 / nr=0 / decimate=1 / interlaced=0 / bluray_compat=0 / constrained_intra=0 / bframes=16 / b_pyramid=2 / b_adapt=1 / b_bias=0 / direct=1 / weightb=1 / open_gop=0 / weightp=2 / keyint=250 / keyint_min=25 / scenecut=40 / intra_refresh=0 / rc_lookahead=40 / rc=crf / mbtree=1 / crf=16.0 / qcomp=0.60 / qpmin=0 / qpmax=69 / qpstep=4 / ip_ratio=1.40 / aq=1:1.00
Audio
ID : 2
Format : AC-3
Format/Info : Audio Coding 3
Mode extension : CM (complete main)
Codec ID : A_AC3
Duration : 1h 48mn
Bit rate mode : Constant
Bit rate : 448 Kbps
Channel(s) : 6 channels
Channel positions : Front: L C R, Side: L R, LFE
Sampling rate : 48.0 KHz
Bit depth : 16 bits
Stream size : 349 MiB (7%)
Language : Russian

Скриншоты:

Яндекс.Метрика
Рейтинг@Mail.ru