Работорговля / Skin Trade (2014) HDRip [H.264] [EN / EN Sub]

 

Создавать темы 23-Апр-2015 17:01

-Работорговля / Skin Trade (2014) HDRip- Производство: США, Таиланд, Канада, Baumgarten Management, SC Films International, Thor Pictures, Thorbak
Жанр: Боевик, Триллер, Драма
Режиссер: Экачай Уэкронгтам
Актеры: Рон Перлман, Дольф Лундгрен, Питер Уэллер, Майкл Джей Уайт, Тони Джа, Селина Жаде, Конан Стивенс, Кэри-Хироюки Тагава, Тася Телес, Майк Допуд
Описание:
Подпольная, теневая торговля, чёрный рынок — синонимы одной из острейших и наболевших проблем современного общества. Но сбыт человеческих органов — ещё более страшная реальность, с которой сталкивается герой столь непростой истории. Полицейский-детектив расследует дело о похищении и вероятности продажи «на органы» одной девушки.
Распутывая клубок гениально спланированного преступления, он лицом к лицу сталкивается с целой подпольной системой, рынком рабов, в котором свои заправилы и боссы являются вершителями судеб сотен и тысяч невинных и беззащитных. Приоткрыв завесу над кошмаром во плоти, простому копу придётся вступить в неравную борьбу с представителями рынка, в борьбу, из которой практически невозможно выйти победителем…-СЕМПЛ-Дата мировой премьеры: 7 ноября 2014
Продолжительность: 01:35:48
Качество видео: HDRip
Перевод: Отсутствует
Язык: Английский
Язык субтитров: Английский
Вид субтитров: Вшитые отключаемые
Видеокодек: AVC/H.264
Битрейт видео: ~1067 kbps
Размер кадра: 720x304
Аудиокодек: AC3 5.1
Битрейт аудио: 384 kbps

MI

Общее
Уникальный идентификатор                 : 192933875793576633331687677905593294435 (0x9125B67E80487A5BBC01A265F2B1DE63)
Полное имя                               : E:\Фильмы_E\Skin.Trade.2014.HDRip.EN.NNM-CLUB.mkv
Формат                                   : Matroska
Версия формата                           : Version 4 / Version 2
Размер файла                             : 1014 Мбайт
Продолжительность                        : 1 ч. 35 м.
Режим общего битрейта                    : Переменный
Общий поток                              : 1480 Кбит/сек
Название фильма                          : Skin Trade (2014) NNM-CLUB
Дата кодирования                         : UTC 2015-04-23 09:55:17
Программа кодирования                    : mkvmerge v7.8.0 ('River Man') 64bit built on Mar 27 2015 16:31:37
Библиотека кодирования                   : libebml v1.3.1 + libmatroska v1.4.2
Attachements                             : cover.jpg
DURATION                                 : 01:29:30.097000000
NUMBER_OF_FRAMES                         : 518
NUMBER_OF_BYTES                          : 18236
_STATISTICS_WRITING_APP                  : mkvmerge v7.8.0 ('River Man') 64bit built on Mar 27 2015 16:31:37
_STATISTICS_WRITING_DATE_UTC             : 2015-04-23 09:55:17
_STATISTICS_TAGS                         : BPS DURATION NUMBER_OF_FRAMES NUMBER_OF_BYTES
Видео
Идентификатор                            : 1
Формат                                   : AVC
Формат/Информация                        : Advanced Video Codec
Профиль формата                          : [url=mailto:[email protected]][email protected][/url]
Параметр CABAC формата                   : Да
Параметр ReFrames формата                : 3 кадра
Идентификатор кодека                     : V_MPEG4/ISO/AVC
Продолжительность                        : 1 ч. 35 м.
Вид битрейта                             : Переменный
Битрейт                                  : 1067 Кбит/сек
Максимальный битрейт                     : 40,0 Мбит/сек
Ширина                                   : 720 пикселей
Высота                                   : 304 пикселя
Соотношение сторон                       : 2,35:1
Режим частоты кадров                     : Постоянный
Частота кадров                           : 23,976 кадра/сек
Цветовое пространство                    : YUV
Субдискретизация насыщенности            : 4:2:0
Битовая глубина                          : 8 бит
Тип развёртки                            : Прогрессивная
Бит/(Пиксели*Кадры)                      : 0.203
Размер потока                            : 731 Мбайт (72%)
Библиотека кодирования                   : x264 core 146 r2538 121396c
Настройки программы                      : cabac=1 / ref=4 / deblock=1:-1:-1 / analyse=0x3:0x133 / me=umh / subme=10 / psy=1 / psy_rd=1.00:0.15 / mixed_ref=1 / me_range=24 / chroma_me=1 / trellis=2 / 8x8dct=1 / cqm=0 / deadzone=21,11 / fast_pskip=1 / chroma_qp_offset=-3 / threads=12 / lookahead_threads=1 / sliced_threads=0 / slices=4 / nr=0 / decimate=1 / interlaced=0 / bluray_compat=0 / constrained_intra=0 / bframes=3 / b_pyramid=1 / b_adapt=2 / b_bias=0 / direct=3 / weightb=1 / open_gop=0 / weightp=0 / keyint=23 / keyint_min=1 / scenecut=40 / intra_refresh=0 / rc_lookahead=23 / rc=crf / mbtree=1 / crf=18.5 / qcomp=0.60 / qpmin=10 / qpmax=51 / qpstep=4 / vbv_maxrate=40000 / vbv_bufsize=30000 / crf_max=0.0 / nal_hrd=vbr / filler=0 / ip_ratio=1.40 / aq=1:1.00
Default                                  : Да
Forced                                   : Нет
Основные цвета                           : BT.709
Характеристики трансфера                 : BT.709
Коэффициенты матрицы                     : BT.709
colour_range                             : Full
Аудио
Идентификатор                            : 2
Формат                                   : AC-3
Формат/Информация                        : Audio Coding 3
Расширение режима                        : CM (complete main)
Параметр Endianness формата              : Big
Идентификатор кодека                     : A_AC3
Продолжительность                        : 1 ч. 35 м.
Вид битрейта                             : Постоянный
Битрейт                                  : 384 Кбит/сек
Каналы                                   : 6 каналов
Расположение каналов                     : Front: L C R, Side: L R, LFE
Частота                                  : 48,0 КГц
Битовая глубина                          : 16 бит
Метод сжатия                             : С потерями
Размер потока                            : 263 Мбайт (26%)
Язык                                     : English
Default                                  : Да
Forced                                   : Нет
Текст
Идентификатор                            : 3
Формат                                   : UTF-8
Идентификатор кодека                     : S_TEXT/UTF8
Идентификатор кодека/Информация          : UTF-8 Plain Text
Язык                                     : English
Default                                  : Нет
Forced                                   : Нет
Скриншоты:

Скриншоты:

Время раздачи: По возможности 24/7 (круглосуточно)
Яндекс.Метрика
Рейтинг@Mail.ru