Katy Perry - Roar (2014) Master 1080p | 60 fps

 

Создавать темы 23-Апр-2015 10:37

Katy Perry - Roar (2014) Master 1080p | 60 fps

Информация о Клипе:
Исполнители:Katy Perry
Название:Roar
Год выпуска: 2014 г.
Жанр: Поп
Продолжительность: 00:04:24 мин

Файл:
Формат видео: MKV
Качество видео: Master 1080p | 60 fps
Видео кодек: H.264
Аудио кодек: AC3
Видео: 1920x1080 | 59.940 fps | 20,9 Мбит/сек
Аудио: AC3 | 2 channels | 48 kHz |448 Кбит/сек

Автор Рипа:Kamikkadze
Релиз Группа 60-fps

MediaInfo

Video
ID : 1
Format : AVC
Format/Info : Advanced Video Codec
Format profile : [email protected]
Format settings, CABAC : Yes
Format settings, ReFrames : 8 frames
Codec ID : V_MPEG4/ISO/AVC
Duration : 4mn 24s
Bit rate : 20.9 Mbps
Nominal bit rate : 23.0 Mbps
Width : 1 920 pixels
Height : 1 080 pixels
Display aspect ratio : 16:9
Frame rate mode : Constant
Frame rate : 59.880 fps
Original frame rate : 59.940 fps
Color space : YUV
Chroma subsampling : 4:2:0
Bit depth : 8 bits
Scan type : Progressive
Bits/(Pixel*Frame) : 0.169
Stream size : 660 MiB (96%)
Title : Rip By Kamikkadze
Writing library : x264 core 130 r2273 b3065e6
Encoding settings : cabac=1 / ref=8 / deblock=1:-2:-1 / analyse=0x3:0x113 / me=umh / subme=10 / psy=1 / psy_rd=1.00:0.20 / mixed_ref=1 / me_range=24 / chroma_me=1 / trellis=2 / 8x8dct=1 / cqm=0 / deadzone=21,11 / fast_pskip=0 / chroma_qp_offset=-3 / threads=6 / lookahead_threads=1 / sliced_threads=0 / nr=0 / decimate=0 / interlaced=0 / bluray_compat=0 / constrained_intra=0 / bframes=3 / b_pyramid=2 / b_adapt=2 / b_bias=0 / direct=1 / weightb=1 / open_gop=0 / weightp=2 / keyint=250 / keyint_min=25 / scenecut=40 / intra_refresh=0 / rc_lookahead=60 / rc=cbr / mbtree=1 / bitrate=23000 / ratetol=1.0 / qcomp=0.60 / qpmin=0 / qpmax=69 / qpstep=4 / vbv_maxrate=23000 / vbv_bufsize=14000 / nal_hrd=none / ip_ratio=1.40 / aq=1:1.00
Default : Yes
Forced : No
Audio
ID : 2
Format : AC-3
Format/Info : Audio Coding 3
Mode extension : CM (complete main)
Format settings, Endianness : Big
Codec ID : A_AC3
Duration : 4mn 24s
Bit rate mode : Constant
Bit rate : 448 Kbps
Channel(s) : 2 channels
Channel positions : Front: L R
Sampling rate : 48.0 KHz
Bit depth : 16 bits
Compression mode : Lossy
Stream size : 14.1 MiB (2%)
Title : Rip By Kamikkadze
Default : Yes
Forced : No
Просьба к переливающим на другие сайты, в оформлении указывайте пожалуйста авторство рипа - Kamikkadze

Создавать темы 23-Апр-2015 17:46 (спустя 7 часов)

Много релизов от этого автора здесь, рады видеть релиз от самого автора. Большое спасибо!!!

Создавать темы 23-Апр-2015 21:45 (спустя 3 часа)

T_O_M писал(а):

Большое спасибо!!!
Вам спасибо за теплые слова,для хороших людей,приятно делать рипы ar
Яндекс.Метрика
Рейтинг@Mail.ru