Седьмой сын / Seventh Son (2014) BDRip [H.264/1080p]

 

Создавать темы 22-Апр-2015 00:14

--Седьмой сын / Seventh Son (2014) BDRip--
    • Производство: Великобритания, США, Канада, Китай / Legendary Pictures, Moving Picture Company
    • Жанр: Фэнтези, Приключения
    • Режиссер: Сергей Бодров
    • Продюсер: Бэзил Иваник, Томас Тулл, Лайонел Уигрэм
    • Актеры: Бен Барнс, Джефф Бриджес, Джулианна Мур, Алисия Викандер, Кит Харингтон, Джимон Хонсу, Оливия Уильямс, Антье Трауэ, Джейсон Скотт Ли, Дэвид Кабитт
    • Описание:
    Рассказ в фильме пойдет про парня, который, так уж вышло, стал седьмым сыном седьмого сына. А только такой человек может стать ведьмаком. Но этого недостаточно, чтобы именовать себя так — необходимо пройти массу тренировок, а также усердно учиться. Ведь главное оружие ведьмака — это его ум. Хоть в народе их не любят, но кто-то же обязан убивать нечисть, хранить землю от сил зла и делать всю грязную работу? Юный Том Уорд попробует стать тем самым учеником ведьмака.
- -
  • Дата мировой премьеры: 17 декабря 2014
  • Дата премьеры в РФ: 1 января 2015, «UPI»
  • Дата выхода DVD/Blu-ray релиза: 30 апреля 2015, «Двадцатый Век Фокс СНГ»
  • Продолжительность: 01:42:00
  • Качество видео: BDRip
    Перевод: Дублированный (iTunes)
    Субтитры: Вшитые (отключаемые)
    Язык субтитров: Английский
  • Видеокодек: MPEG-4 AVC/H.264
  • Битрейт видео: ~ 9013 Кбит/с
  • Размер кадра: 1920x800
  • Аудио 1: Русский AC3, 6 ch, 384 Кбит/с
  • Аудио 2: Английский DTS, 6 ch, 1509 Кбит/с
-

MediaInfo:

      General
      Format : Matroska
      File size : 7.93 GiB
      Duration : 1h 42mn
      Overall bit rate : 11.1 Mbps
      Encoded date : UTC 2015-04-21 17:43:06
      Writing application : mkvmerge v7.7.0 ('Six Voices') 64bit built on Feb 28 2015 23:39:33
      Writing library : libebml v1.3.1 + libmatroska v1.4.2
      Video
      ID : 1
      Format : AVC
      Format/Info : Advanced Video Codec
      Format profile : [email protected]
      Format settings, CABAC : Yes
      Format settings, ReFrames : 5 frames
      Muxing mode : Container [email protected]
      Codec ID : V_MPEG4/ISO/AVC
      Duration : 1h 41mn
      Bit rate : 9 013 Kbps
      Nominal bit rate : 9 234 Kbps
      Width : 1 920 pixels
      Height : 800 pixels
      Display aspect ratio : 2.40:1
      Frame rate : 23.976 fps
      Resolution : 8 bits
      Colorimetry : 4:2:0
      Scan type : Progressive
      Bits/(Pixel*Frame) : 0.245
      Stream size : 6.42 GiB (81%)
      Writing library : x264 core 146 r2538 121396c
      Encoding settings : cabac=1 / ref=5 / deblock=1:0:0 / analyse=0x3:0x133 / me=umh / subme=8 / psy=1 / psy_rd=1.00:0.00 / mixed_ref=1 / me_range=16 / chroma_me=1 / trellis=1 / 8x8dct=1 / cqm=0 / deadzone=21,11 / fast_pskip=0 / chroma_qp_offset=-2 / threads=12 / lookahead_threads=2 / sliced_threads=0 / nr=0 / decimate=1 / interlaced=0 / bluray_compat=0 / constrained_intra=0 / bframes=3 / b_pyramid=2 / b_adapt=2 / b_bias=0 / direct=3 / weightb=1 / open_gop=0 / weightp=2 / keyint=250 / keyint_min=23 / scenecut=40 / intra_refresh=0 / rc_lookahead=50 / rc=2pass / mbtree=1 / bitrate=9234 / ratetol=1.0 / qcomp=0.60 / qpmin=0 / qpmax=69 / qpstep=4 / cplxblur=20.0 / qblur=0.5 / ip_ratio=1.40 / aq=1:1.00
      Audio #1
      ID : 2
      Format : AC-3
      Format/Info : Audio Coding 3
      Codec ID : A_AC3
      Duration : 1h 42mn
      Bit rate mode : Constant
      Bit rate : 384 Kbps
      Channel(s) : 6 channels
      Channel positions : Front: L C R, Surround: L R, LFE
      Sampling rate : 48.0 KHz
      Video delay : 24ms
      Stream size : 280 MiB (3%)
      Language : Russian
      Audio #2
      ID : 3
      Format : DTS
      Format/Info : Digital Theater Systems
      Codec ID : A_DTS
      Duration : 1h 42mn
      Bit rate mode : Constant
      Bit rate : 1 510 Kbps
      Channel(s) : 6 channels
      Channel positions : Front: L C R, Surround: L R, LFE
      Sampling rate : 48.0 KHz
      Resolution : 24 bits
      Stream size : 1.08 GiB (14%)
      Title : English
      Text
      ID : 4
      Format : UTF-8
      Codec ID : S_TEXT/UTF8
      Codec ID/Info : UTF-8 Plain Text
      Title : English
      Menu
      00:00:00.000 : en:00:00:00.000
      00:04:50.415 : en:00:04:50.415
      00:10:28.545 : en:00:10:28.545
      00:16:40.583 : en:00:16:40.583
      00:22:40.359 : en:00:22:40.359
      00:27:40.450 : en:00:27:40.450
      00:30:17.691 : en:00:30:17.691
      00:36:45.203 : en:00:36:45.203
      00:42:37.388 : en:00:42:37.388
      00:49:54.742 : en:00:49:54.742
      00:54:45.073 : en:00:54:45.073
      00:57:48.548 : en:00:57:48.548
      01:02:53.144 : en:01:02:53.144
      01:06:53.968 : en:01:06:53.968
      01:11:29.285 : en:01:11:29.285
      01:18:36.921 : en:01:18:36.921
      01:22:10.300 : en:01:22:10.300
      01:25:32.669 : en:01:25:32.669
      01:30:15.035 : en:01:30:15.035
      01:33:21.095 : en:01:33:21.095
Скриншоты:
Яндекс.Метрика
Рейтинг@Mail.ru