[ Сегодня на трекере фрилич! Идет свободное скачивание без начисления Download ]

Последний гладиатор / Held der Gladiatoren (2003) DVDRip

 

Создавать темы 21-Апр-2015 22:56

--Последний гладиатор / Held der Gladiatoren (2003) DVDRip--
  • Производство: Германия, Австрия
  • Жанр: Боевик, драма, приключения
  • Режиссер: Йорг Пепависсил
  • Актеры: Штефан Хорнунг, Таня Венцель, Андреа Клевен, Хэннинг Баум, Ральф Мэллер, Грегог Блоб ...
  • Описание фильма:
    В римской империи бои гладиаторов считалась вершиной боевого мужества. Обреченные на смерть бойцы - это герои арены, которых искали по всей империи. Раб Германиус, происходящий из знатного рода, был одним из них. После убийства родителей он вместе с братом и сестрой попадают в плен к римлянам. Но его брат гибнет от руки свободного гладиатора Лагоса, желая отомстить он случайно узнает, что его сестра влюблена в убийцу их брата... Путь к свободе будет длинным и кровавым!
- -
  • Продолжительность: 01:37:12
  • Качество видео: DVDRip
  • Перевод: Профессиональный многоголосый
  • Видео: DivX 5, 720x448, 1620 Кбит/с
  • Аудио: AC3, 5 ch, 384 Кбит/с
-

MediaInfo:

    Общее
    Полное имя : C:\NNM\Последний гладиатор\Poslednij gladiator 2003 DVDRip.avi
    Формат : AVI
    Формат/Информация : Audio Video Interleave
    Размер файла : 1,37 Гбайт
    Продолжительность : 1 ч. 37 м.
    Общий поток : 2012 Кбит/сек
    Программа кодирования : VirtualDubMod 1.5.4.1 (build 2178/release)
    Библиотека кодирования : VirtualDubMod build 2178/release
    Видео
    Идентификатор : 0
    Формат : MPEG-4 Visual
    Параметр BVOP формата : 1
    Параметр QPel формата : Нет
    Параметр GMC формата : Без точки перехода
    Параметр матрицы формата : Default (H.263)
    Режим смешивания : Сжатый битовый поток
    Идентификатор кодека : DX50
    Идентификатор кодека/Подсказка : DivX 5
    Продолжительность : 1 ч. 37 м.
    Битрейт : 1620 Кбит/сек
    Ширина : 720 пикселей
    Высота : 448 пикселей
    Соотношение сторон : 1,607
    Частота кадров : 29,970 кадров/сек
    Цветовое пространство : YUV
    Субдискретизация насыщенности : 4:2:0
    Битовая глубина : 8 бит
    Тип развёртки : Прогрессивная
    Метод сжатия : С потерями
    Бит/(Пиксели*Кадры) : 0.168
    Размер потока : 1,10 Гбайт (81%)
    Библиотека кодирования : DivX 6.4.0 (UTC 2006-10-03)
    Аудио
    Идентификатор : 1
    Формат : AC-3
    Формат/Информация : Audio Coding 3
    Расширение режима : CM (complete main)
    Идентификатор кодека : 2000
    Продолжительность : 1 ч. 37 м.
    Вид битрейта : Постоянный
    Битрейт : 384 Кбит/сек
    Каналы : 5 каналов
    Расположение каналов : Front: L C R, Side: L R
    Частота : 48,0 КГц
    Битовая глубина : 16 бит
    Метод сжатия : С потерями
    Размер потока : 267 Мбайт (19%)
    Выравнивание : Разделение по промежуткам
    Продолжительность промежутка : 96 мс. (2,88 видеокадра)
    Время предзагрузки промежутка : 96 мс.
    Язык : Russian
Скриншоты:
Яндекс.Метрика
Рейтинг@Mail.ru