(Pop-Rock) Любэ - За тебя, Родина-Мать! - 2015, FLAC (image+.cue), lossless

 

Создавать темы 21-Апр-2015 19:55

-Любэ - За тебя, Родина-Мать!- Жанр:Pop-Rock
Год издания: 2015
Издатель (лейбл): ООО "Продюсерский центр И.Матвиенко"
Номер по каталогу: vol.177.0
Аудиокодек: FLAC (*.flac)
Тип рипа: image+.cue
Битрейт аудио: lossless
Продолжительность: 00:39:25
Источник (релизер): petrysikk собственный диск
Наличие сканов в содержимом раздачи: да-Треклист:
01. За тебя, Родина-Мать
02. За бортом
03. Долго
04. Якоря
05. Всё путём
06. Просто любовь
07. Всё зависит от бога и немного от нас
08. Восточный фронт
09. Товарищ
10. Сталинград
11. Гимн Родине
12. Давай,не валяй..(MASH-UP)

Отчёт EAC

Exact Audio Copy V1.0 beta 4 from 7. December 2014
Отчёт EAC об извлечении, выполненном 2. апреля 2015, 18:55
Любэ / За тебя,Родина-мать!
Дисковод: PIONEER DVD-RW  DVR-219L   Adapter: 1  ID: 0
Режим чтения                 : Достоверность
Использование точного потока : Да
Отключение кэша аудио        : Да
Использование указателей C2  : Нет
Коррекция смещения при чтении                     : 6
Способность читать области Lead-in и Lead-out     : Нет
Заполнение пропущенных сэмплов тишиной            : Да
Удаление блоков с тишиной в начале и конце        : Нет
При вычислениях CRC использовались нулевые сэмплы : Да
Интерфейс                                         : Встроенный Win32-интерфейс для Win NT/2000
Выходной формат          : Пользовательский кодировщик
Выбранный битрейт        : 128 kBit/s
Качество                 : Высокий
Добавление ID3-тега      : Да
Утилита сжатия           : C:\Program Files (x86)\Exact Audio Copy\Flac\flac.exe
Дополнительные параметры : -V -8 -T "Date=%year%" -T "Genre=%genre%" %source%
TOC извлечённого CD
     Трек |   Старт  | Длительность | Начальный сектор | Конечный сектор
    ---------------------------------------------------------------------
       1  |  0:00.00 |    3:53.00   |           0      |      17474
       2  |  3:53.00 |    4:23.43   |       17475      |      37242
       3  |  8:16.43 |    2:40.47   |       37243      |      49289
       4  | 10:57.15 |    3:55.59   |       49290      |      66973
       5  | 14:52.74 |    2:13.03   |       66974      |      76951
       6  | 17:06.02 |    3:16.47   |       76952      |      91698
       7  | 20:22.49 |    3:51.32   |       91699      |     109055
       8  | 24:14.06 |    4:19.55   |      109056      |     128535
       9  | 28:33.61 |    3:05.11   |      128536      |     142421
      10  | 31:38.72 |    3:43.03   |      142422      |     159149
      11  | 35:22.00 |    4:03.52   |      159150      |     177426
      12  | 39:25.52 |    2:59.49   |      177427      |     190900
Характеристики диапазона извлечения и сообщения об ошибках
Выбранный диапазон
     Имя файла D:\Раздачи\Любэ - За тебя,Родина-мать!.wav
     Пиковый уровень 99.9 %
     Скорость извлечения 1.6 X
     Качество диапазона 100.0 %
     CRC теста 6808AC64
     CRC копии 6808AC64
     Копирование... OK
Ошибок не произошло
Яндекс.Метрика
Рейтинг@Mail.ru