(Шансон) Дмитрий Василевский - Одинокий мужичок... - 2007, FLAC (image+.cue), lossless

 

Создавать темы 21-Апр-2015 19:45

-Дмитрий Василевский - Одинокий мужичок...- Жанр: Шансон
Год выпуска диска: 2007
Производитель диска: Россия
Аудио кодек: FLAC
Тип рипа: image+.cue
Битрейт аудио: lossless
Продолжительность: 41:37-Трэклист:
01. Одинокий мужичок... (4:04)
02. В созвездии рыб (5:09)
03. Жигули (3:25)
04. Весенний вечер (3:42)
05. Картина не маслом (3:41)
06. Бессонница (4:15)
07. Колдунья (3:06)
08. Прости (4:26)
09. Ульянка (3:21)
10. Передай мне привет... (3:37)
11. А мне то вериться... (2:52)

Отчёт EAC

Exact Audio Copy V0.99 prebeta 4 from 23. January 2008
Отчёт EAC об извлечении, выполненном 8. августа 2009, 14:27
Дмитрий Василевский / Одинокий мужичок...
Дисковод: _NEC    DVD+-RW ND-2510A   Adapter: 1  ID: 0
Режим чтения                 : Достоверность
Использование точного потока : Да
Отключение кэша аудио        : Да
Использование указателей C2  : Нет
Коррекция смещения при чтении                     : 48
Способность читать области Lead-in и Lead-out     : Нет
Заполнение пропущенных сэмплов тишиной            : Да
Удаление блоков с тишиной в начале и конце        : Нет
При вычислениях CRC использовались нулевые сэмплы : Да
Интерфейс                                         : Установленный внешний ASPI-интерфейс
Выходной формат : Внутренние WAV-операции
Формат сэмплов  : 44.100 Гц; 16 бит; стерео
TOC извлечённого CD
     Трек |   Старт  | Длительность | Начальный сектор | Конечный сектор
    ---------------------------------------------------------------------
       1  |  0:00.00 |    4:03.74   |           0      |      18298
       2  |  4:03.74 |    5:09.32   |       18299      |      41505
       3  |  9:13.31 |    3:24.51   |       41506      |      56856
       4  | 12:38.07 |    3:42.07   |       56857      |      73513
       5  | 16:20.14 |    3:40.46   |       73514      |      90059
       6  | 20:00.60 |    4:14.57   |       90060      |     109166
       7  | 24:15.42 |    3:05.40   |      109167      |     123081
       8  | 27:21.07 |    4:25.62   |      123082      |     143018
       9  | 31:46.69 |    3:20.69   |      143019      |     158087
      10  | 35:07.63 |    3:36.58   |      158088      |     174345
      11  | 38:44.46 |    2:51.72   |      174346      |     187242
Характеристики диапазона извлечения и сообщения об ошибках
Выбранный диапазон
     Имя файла D:\Дмитрий Василевский - Одинокий мужичок....wav
     Пиковый уровень 98.8 %
     Качество диапазона 100.0 %
     CRC копии 0F454EE3
     Копирование... OK
Ошибок не произошло
Конец отчёта
-
Яндекс.Метрика
Рейтинг@Mail.ru