[ Сегодня на трекере фрилич! Идет свободное скачивание без начисления Download ]

Сапожник / The Cobbler (Томас МакКарти / Thomas McCarthy) [2014 г., фэнтези, драма, комедия, BDRip, 720p] DVO (Студия Пиратского Дубляжа) + Original (Eng)

 

Создавать темы 21-Апр-2015 19:31

-Сапожник / The Cobbler- Производство: США, Voltage Pictures, Next Wednesday Productions, Golden Spike
Год выпуска: 2014 г.
Жанр: фэнтези, драма, комедия
Продолжительность: 01:38:03
Мировая премьера: 11 сентября 2014-Перевод: Любительский (двухголосный, закадровый) [Студия Пиратского Дубляжа]
Оригинальный аудиопоток: английский-Режиссер: Томас МакКарти / Thomas McCarthy
В ролях: Адам Сэндлер, Дэн Стивенс, Стив Бушеми, Дастин Хоффман, Эллен Баркин, Елена Кампурис, Гленн Флешлер, Метод Мэн, Мелони Диас, Джаред Сэндлер, Линн Коэн, Донни Кешаварц, Джои Злотник, Грета Ли, Юл Васкес, Кевин Брезнахан, Дэнни Мастроджорджо, Крэйг Уолкер, Гризз Чэпмен, Адам Б. Шапиро-Описание: Макс Симкин занимается ремонтом обуви в Нью-Йорке. Он работает в магазине, который передавался его семьей из поколения в поколение. Однажды, разочарованный своей скучной жизнью, Макс натыкается на волшебную реликвию, которая позволяет ему увидеть мир по-новому.-Качество видео: BDRip
Контейнер: MKV
Стандарт разрешения: 720p
Видео кодек: MPEG4 AVC
Аудио кодек: AC3, DTS
Видео: 1280x688 (1.85:1), 23.976 fps, 4 868 Kbps, 0.231 bit/pix
Аудио: Russian: 48 kHz, AC3, 2 ch, ~384.00 kbps avg
Аудио #2: English: 48 kHz, DTS, 3/2 (L,C,R,l,r) + LFE ch, ~1509.00 kbps avg
Cубтитры: отсутствуют-

Media Info

General
Unique ID : 229446423400067682804694962123400193839 (0xAC9DC61435A95428964AC1E2B0EEA72F)
Complete name : F:\Фильмы\The.Cobbler.2014.P.BDRip.720p.mkv
Format : Matroska
Format version : Version 2
File size : 4.63 GiB
Duration : 1h 38mn
Overall bit rate : 6 759 Kbps
Encoded date : UTC 2015-04-20 22:06:31
Writing application : mkvmerge v7.4.0 ('Circles') 64bit built on Dec 12 2014 12:19:56
Writing library : libebml v1.3.0 + libmatroska v1.4.1
DURATION : 01:38:02.528000000
NUMBER_OF_FRAMES : 183829
NUMBER_OF_BYTES : 282361344
_STATISTICS_WRITING_APP : mkvmerge v7.4.0 ('Circles') 64bit built on Dec 12 2014 12:19:56
_STATISTICS_WRITING_DATE_UT : 2015-04-20 22:06:31
_STATISTICS_TAGS : BPS DURATION NUMBER_OF_FRAMES NUMBER_OF_BYTES
Video
ID : 1
Format : AVC
Format/Info : Advanced Video Codec
Format profile : [email protected]
Format settings, CABAC : Yes
Format settings, ReFrames : 5 frames
Codec ID : V_MPEG4/ISO/AVC
Duration : 1h 38mn
Bit rate : 4 868 Kbps
Width : 1 280 pixels
Height : 688 pixels
Display aspect ratio : 1.85:1
Frame rate mode : Constant
Frame rate : 23.976 fps
Color space : YUV
Chroma subsampling : 4:2:0
Bit depth : 8 bits
Scan type : Progressive
Bits/(Pixel*Frame) : 0.231
Stream size : 3.24 GiB (70%)
Writing library : x264 core 144 r2525 40bb568
Encoding settings : cabac=1 / ref=5 / deblock=1:0:0 / analyse=0x3:0x133 / me=umh / subme=7 / psy=1 / psy_rd=1.00:0.00 / mixed_ref=1 / me_range=16 / chroma_me=1 / trellis=1 / 8x8dct=1 / cqm=0 / deadzone=21,11 / fast_pskip=0 / chroma_qp_offset=-2 / threads=18 / lookahead_threads=3 / sliced_threads=0 / nr=0 / decimate=1 / interlaced=0 / bluray_compat=0 / constrained_intra=0 / bframes=3 / b_pyramid=2 / b_adapt=1 / b_bias=0 / direct=1 / weightb=1 / open_gop=0 / weightp=2 / keyint=250 / keyint_min=23 / scenecut=40 / intra_refresh=0 / rc_lookahead=40 / rc=2pass / mbtree=1 / bitrate=4868 / ratetol=1.0 / qcomp=0.60 / qpmin=0 / qpmax=69 / qpstep=4 / cplxblur=20.0 / qblur=0.5 / ip_ratio=1.40 / aq=1:1.00
Language : English
Default : Yes
Forced : No
DURATION : 01:38:02.595000000
NUMBER_OF_FRAMES : 141041
NUMBER_OF_BYTES : 3576010087
_STATISTICS_WRITING_APP : mkvmerge v7.4.0 ('Circles') 64bit built on Dec 12 2014 12:19:56
_STATISTICS_WRITING_DATE_UT : 2015-04-20 22:06:31
_STATISTICS_TAGS : BPS DURATION NUMBER_OF_FRAMES NUMBER_OF_BYTES
Audio #1
ID : 2
Format : AC-3
Format/Info : Audio Coding 3
Mode extension : CM (complete main)
Format settings, Endianness : Big
Codec ID : A_AC3
Duration : 1h 38mn
Bit rate mode : Constant
Bit rate : 384 Kbps
Channel(s) : 2 channels
Channel positions : Front: L R
Sampling rate : 48.0 KHz
Compression mode : Lossy
Stream size : 269 MiB (6%)
Language : Russian
Default : Yes
Forced : No
Audio #2
ID : 3
Format : DTS
Format/Info : Digital Theater Systems
Mode : 16
Format settings, Endianness : Big
Codec ID : A_DTS
Duration : 1h 38mn
Bit rate mode : Constant
Bit rate : 1 509 Kbps
Channel(s) : 6 channels
Channel positions : Front: L C R, Side: L R, LFE
Sampling rate : 48.0 KHz
Bit depth : 24 bits
Compression mode : Lossy
Stream size : 1.03 GiB (22%)
Language : English
Default : No
Forced : No
Menu
00:00:00.000 : en:00:00:00.000
00:08:30.301 : en:00:08:30.301
00:16:07.049 : en:00:16:07.049
00:23:33.954 : en:00:23:33.954
00:39:04.592 : en:00:39:04.592
00:46:01.968 : en:00:46:01.968
00:51:59.700 : en:00:51:59.700
01:00:35.757 : en:01:00:35.757
01:08:49.042 : en:01:08:49.042
01:15:42.288 : en:01:15:42.288
01:26:43.698 : en:01:26:43.698
01:33:17.425 : en:01:33:17.425
-

Скриншоты:

-
Яндекс.Метрика
Рейтинг@Mail.ru