[ Сегодня на трекере фрилич! Идет свободное скачивание без начисления Download ]

Анжелика: Пенталогия / Angelique: Pentalogy (Бернар Бордери / Bernard Borderie) [1964 - 1968, Франция, Германия (ФРГ), Италия, мелодрама, приключения, история, BDRip-AVC] Dub + MVO (НТВ) +Original Fre + Sub Rus

 

Создавать темы 20-Апр-2015 22:22

Анжелика: Пенталогия : Полное издание фильмов Страна: Франция, Германия (ФРГ), Италия / Franco London Films
Жанр: мелодрама, приключения, история
Режиссер: Бернар Бордери / Bernard Borderie
В ролях: Мишель Мерсье, Робер Оссейн, Жан Рошфор, Клод Жиро, Джулиано Джемма, Шарль Ренье, Жак Тожа, Мадлен ЛеБо, Жан Топар, Бернар Воринже, Жан Озенн, Франсуа Мэтр, Робер Порт, Рената Эверт, Жак Кастело, Бернар Ла Жарриж, Розальба Нери, Андре Руйе, Клер Атана, Эллен Баль, Катрин Кларенс, Элизабет Эрси

Анжелика, маркиза ангелов / Angelique, marquise des anges:

Анжелика, маркиза ангелов / Angelique, marquise des anges Страна: Франция, Германия (ФРГ), Италия / Franco London Films
Жанр: мелодрама, приключения, история
Год выпуска: 1964
Продолжительность: 01:51:57
Перевод 1: Профессиональный (полное дублирование) Советский Дубляж + вставки НТВ
Перевод 2: Профессиональный (многоголосый закадровый) НТВ
Cубтитры: русские
Оригинальная аудиодорожка: французский
Режиссер: Бернар Бордери / Bernard Borderie
В ролях:
Мишель Мерсье, Робер Оссейн, Жан Рошфор, Клод Жиро, Джулиано Джемма, Шарль Ренье, Жак Тожа, Мадлен ЛеБо, Жан Топар, Бернар Воринже, Жан Озенн, Франсуа Мэтр, Робер Порт, Рената Эверт, Жак Кастело, Бернар Ла Жарриж, Розальба Нери, Андре Руйе, Клер Атана, Эллен Баль, Катрин Кларенс, Элизабет Эрси
Описание:
Анжелика, необыкновенно красивая бедная аристократка вынуждена выйти замуж за Жоффрея де Пейрака. Несмотря на его внешность она со временем полюбила его. Влюбленные живут счастливо в своем замке, пока однажды к ним не приезжает король. Восхищенный красотой Анжелики Людовик XIV хочет сделать ее своей наложницей…
Качество видео: BDRip-AVC |Angelique: Collection (1964-1968) {5-Disc Edition} Blu-ray 1080p AVC DTS-HD 5.1 HDCLUB|
Формат видео: MKV
Видео: AVC (x264), 1120x476 (2.35:1), ~3330 kbps, 25.000 fps, 0.250 bpp
Аудио 1: AС3, 48 KHz, 2 ch, 192 kbps - (DUB)
Аудио 2: AС3, 48 KHz, 2 ch, 192 kbps - (MVO)
Аудио 3: AС3, 48 KHz, 6 ch, 448 kbps - (ORG) (дополнительно)
Формат субтитров: softsub (SRT)

MediaInfo

Общее
Уникальный идентификатор : 235793606709351545577769700282850652166 (0xB16432608B891B8FBFAC9C2B48D8B006)
Полное имя : H:\Анжелика. Коллекция_1964-1968.BDRip.(AVC)\1.Анжелика, маркиза ангелов_1964\1_Angelique.Collection.BDRip(AVC).mkv
Формат : Matroska
Версия формата : Version 4 / Version 2
Размер файла : 2,91 Гбайт
Продолжительность : 1 ч. 51 м.
Общий поток : 3718 Кбит/сек
Название фильма : Анжелика: Коллекция / Angélique: Collection (1964-1968) [email protected]=-
Дата кодирования : UTC 2014-04-20 05:33:11
Программа кодирования : mkvmerge v6.9.1 ('Blue Panther') 64bit built on Apr 18 2014 18:23:38
Библиотека кодирования : libebml v1.3.0 + libmatroska v1.4.1
Видео
Идентификатор : 1
Формат : AVC
Формат/Информация : Advanced Video Codec
Профиль формата : [email protected]
Параметр CABAC формата : Да
Параметр ReFrames формата : 8 кадров
Идентификатор кодека : V_MPEG4/ISO/AVC
Продолжительность : 1 ч. 51 м.
Битрейт : 3332 Кбит/сек
Ширина : 1120 пикселей
Высота : 476 пикселей
Соотношение сторон : 2,35:1
Режим частоты кадров : Постоянный
Частота кадров : 25,000 кадров/сек
Цветовое пространство : YUV
Субдискретизация насыщенности : 4:2:0
Битовая глубина : 8 бит
Тип развёртки : Прогрессивная
Бит/(Пиксели*Кадры) : 0.250
Размер потока : 2,55 Гбайт (88%)
Заголовок : Rip by nnlabetik
Библиотека кодирования : x264 core 142 r2409 d6b4e63
Настройки программы : cabac=1 / ref=8 / deblock=1:-2:-2 / analyse=0x3:0x113 / me=umh / subme=11 / psy=1 / psy_rd=1.00:0.00 / mixed_ref=1 / me_range=32 / chroma_me=1 / trellis=2 / 8x8dct=1 / cqm=0 / deadzone=21,11 / fast_pskip=1 / chroma_qp_offset=-2 / threads=4 / lookahead_threads=1 / sliced_threads=0 / nr=0 / decimate=0 / interlaced=0 / bluray_compat=0 / constrained_intra=0 / bframes=16 / b_pyramid=2 / b_adapt=2 / b_bias=0 / direct=3 / weightb=1 / open_gop=0 / weightp=1 / keyint=250 / keyint_min=25 / scenecut=40 / intra_refresh=0 / rc_lookahead=40 / rc=2pass / mbtree=0 / bitrate=3332 / ratetol=1.0 / qcomp=0.60 / qpmin=0 / qpmax=69 / qpstep=4 / cplxblur=20.0 / qblur=0.5 / vbv_maxrate=50000 / vbv_bufsize=62500 / nal_hrd=none / filler=0 / ip_ratio=1.30 / pb_ratio=1.20 / aq=1:1.00
Язык : French
Default : Да
Forced : Нет
Аудио #1
Идентификатор : 2
Формат : AC-3
Формат/Информация : Audio Coding 3
Расширение режима : CM (complete main)
Параметр Endianness формата : Big
Идентификатор кодека : A_AC3
Продолжительность : 1 ч. 51 м.
Вид битрейта : Постоянный
Битрейт : 192 Кбит/сек
Каналы : 2 канала
Расположение каналов : Front: L R
Частота : 48,0 КГц
Битовая глубина : 16 бит
Метод сжатия : С потерями
Размер потока : 154 Мбайт (5%)
Заголовок : AC3 2.0 @ 192 kbps (Советский Дубляж)
Язык : Russian
Default : Да
Forced : Нет
Аудио #2
Идентификатор : 3
Формат : AC-3
Формат/Информация : Audio Coding 3
Расширение режима : CM (complete main)
Параметр Endianness формата : Big
Идентификатор кодека : A_AC3
Продолжительность : 1 ч. 51 м.
Вид битрейта : Постоянный
Битрейт : 192 Кбит/сек
Каналы : 2 канала
Расположение каналов : Front: L R
Частота : 48,0 КГц
Битовая глубина : 16 бит
Метод сжатия : С потерями
Размер потока : 154 Мбайт (5%)
Заголовок : AC3 2.0 @ 192 kbps (Многоголосый закадровый, НТВ)
Язык : Russian
Default : Нет
Forced : Нет
Текст
Идентификатор : 4
Формат : UTF-8
Идентификатор кодека : S_TEXT/UTF8
Идентификатор кодека/Информация : UTF-8 Plain Text
Язык : Russian
Default : Нет
Forced : Нет
Меню
00:00:00.000 : en:Chapter 01
00:08:24.440 : en:Chapter 02
00:15:26.240 : en:Chapter 03
00:24:06.400 : en:Chapter 04
00:36:05.120 : en:Chapter 05
00:46:56.680 : en:Chapter 06
00:56:23.239 : en:Chapter 07
01:04:26.160 : en:Chapter 08
01:13:15.120 : en:Chapter 09
01:25:31.160 : en:Chapter 10
01:32:06.560 : en:Chapter 11
01:43:08.040 : en:Chapter 12

Скриншоты:

--
-

Великолепная Анжелика / Merveilleuse Angelique:

Великолепная Анжелика / Merveilleuse Angelique Страна: Франция, Германия (ФРГ), Италия / Franco London Films
Жанр: мелодрама, приключения, история
Год выпуска: 1965
Продолжительность: 01:40:04
Перевод 1: Профессиональный (полное дублирование) Дублированный (новый)
Перевод 2: Профессиональный (многоголосый закадровый) НТВ
Cубтитры: русские
Оригинальная аудиодорожка: французский
Режиссер: Бернар Бордери / Bernard Borderie
В ролях:
Мишель Мерсье, Клод Жиро, Жан Рошфор, Жан-Луи Трентиньян, Джулиано Джемма, Клер Морье, Эрнст Шрёдер, Шарль Ренье, Жак Тожа, Франсуа Мэтр, Робер Порт, Дениз Прованс, Ноэль Роквер, Розальба Нери, Элизабет Эрси, Патрик Лемэтр, Джино Мартурано, Жак Иллинг, Анри Коган, Серж Маркан, Надя Барантен
Описание:
После того как ее мужа сжигают на костре, Анжелика находит убежище у разбойников, глава которых — друг ее детства Николя. Во время нападения другой банды, Николя вынужден пожертвовать собой, чтобы позволить Анжелике бежать. Судьба вновь благосклонна к ней — Анжелике удается выйти замуж за маркиза де Плесси-Бельера. Она решает проникнуть в Версаль и отомстить королю — убийце мужа…
Качество видео: BDRip-AVC |Angelique: Collection (1964-1968) {5-Disc Edition} Blu-ray 1080p AVC DTS-HD 5.1 HDCLUB|
Формат видео: MKV
Видео: AVC (x264), 1120x476 (2.35:1), ~3325 kbps, 25.000 fps, 0.250 bpp
Аудио 1: AС3, 48 KHz, 2 ch, 192 kbps - (DUB)
Аудио 2: AС3, 48 KHz, 2 ch, 192 kbps - (MVO)
Аудио 3: AС3, 48 KHz, 6 ch, 448 kbps - (ORG)
Формат субтитров: softsub (SRT)

MediaInfo

Общее
Уникальный идентификатор : 238380291354180224700715623022930430824 (0xB3565FC6CAC8015A9ECEE806504C0B68)
Полное имя : H:\Анжелика. Коллекция_1964-1968.BDRip.(AVC)\2.Великолепная Анжелика_1965\2_Angelique.Collection.BDRip(AVC).mkv
Формат : Matroska
Версия формата : Version 4 / Version 2
Размер файла : 2,91 Гбайт
Продолжительность : 1 ч. 40 м.
Общий поток : 4160 Кбит/сек
Название фильма : Анжелика: Коллекция / Angélique: Collection (1964-1968) [email protected]=-
Дата кодирования : UTC 2014-04-20 04:53:46
Программа кодирования : mkvmerge v6.9.1 ('Blue Panther') 64bit built on Apr 18 2014 18:23:38
Библиотека кодирования : libebml v1.3.0 + libmatroska v1.4.1
Видео
Идентификатор : 1
Формат : AVC
Формат/Информация : Advanced Video Codec
Профиль формата : [email protected]
Параметр CABAC формата : Да
Параметр ReFrames формата : 8 кадров
Идентификатор кодека : V_MPEG4/ISO/AVC
Продолжительность : 1 ч. 40 м.
Битрейт : 3326 Кбит/сек
Ширина : 1120 пикселей
Высота : 476 пикселей
Соотношение сторон : 2,35:1
Режим частоты кадров : Постоянный
Частота кадров : 25,000 кадров/сек
Цветовое пространство : YUV
Субдискретизация насыщенности : 4:2:0
Битовая глубина : 8 бит
Тип развёртки : Прогрессивная
Бит/(Пиксели*Кадры) : 0.250
Размер потока : 2,27 Гбайт (78%)
Заголовок : Rip by nnlabetik
Библиотека кодирования : x264 core 142 r2409 d6b4e63
Настройки программы : cabac=1 / ref=8 / deblock=1:-2:-2 / analyse=0x3:0x113 / me=umh / subme=11 / psy=1 / psy_rd=1.00:0.00 / mixed_ref=1 / me_range=32 / chroma_me=1 / trellis=2 / 8x8dct=1 / cqm=0 / deadzone=21,11 / fast_pskip=1 / chroma_qp_offset=-2 / threads=4 / lookahead_threads=1 / sliced_threads=0 / nr=0 / decimate=0 / interlaced=0 / bluray_compat=0 / constrained_intra=0 / bframes=16 / b_pyramid=2 / b_adapt=2 / b_bias=0 / direct=3 / weightb=1 / open_gop=0 / weightp=1 / keyint=250 / keyint_min=25 / scenecut=40 / intra_refresh=0 / rc_lookahead=40 / rc=2pass / mbtree=0 / bitrate=3326 / ratetol=1.0 / qcomp=0.60 / qpmin=0 / qpmax=69 / qpstep=4 / cplxblur=20.0 / qblur=0.5 / vbv_maxrate=50000 / vbv_bufsize=62500 / nal_hrd=none / filler=0 / ip_ratio=1.30 / pb_ratio=1.20 / aq=1:1.00
Язык : French
Default : Да
Forced : Нет
Аудио #1
Идентификатор : 2
Формат : AC-3
Формат/Информация : Audio Coding 3
Расширение режима : CM (complete main)
Параметр Endianness формата : Big
Идентификатор кодека : A_AC3
Продолжительность : 1 ч. 40 м.
Вид битрейта : Постоянный
Битрейт : 192 Кбит/сек
Каналы : 2 канала
Расположение каналов : Front: L R
Частота : 48,0 КГц
Битовая глубина : 16 бит
Метод сжатия : С потерями
Размер потока : 137 Мбайт (5%)
Заголовок : AC3 2.0 @ 192 kbps (Новый Дубляж)
Язык : Russian
Default : Да
Forced : Нет
Аудио #2
Идентификатор : 3
Формат : AC-3
Формат/Информация : Audio Coding 3
Расширение режима : CM (complete main)
Параметр Endianness формата : Big
Идентификатор кодека : A_AC3
Продолжительность : 1 ч. 40 м.
Вид битрейта : Постоянный
Битрейт : 192 Кбит/сек
Каналы : 2 канала
Расположение каналов : Front: L R
Частота : 48,0 КГц
Битовая глубина : 16 бит
Метод сжатия : С потерями
Размер потока : 137 Мбайт (5%)
Заголовок : AC3 2.0 @ 192 kbps (Многоголосый закадровый, НТВ)
Язык : Russian
Default : Нет
Forced : Нет
Аудио #3
Идентификатор : 4
Формат : AC-3
Формат/Информация : Audio Coding 3
Расширение режима : CM (complete main)
Параметр Endianness формата : Big
Идентификатор кодека : A_AC3
Продолжительность : 1 ч. 40 м.
Вид битрейта : Постоянный
Битрейт : 448 Кбит/сек
Каналы : 6 каналов
Расположение каналов : Front: L C R, Side: L R, LFE
Частота : 48,0 КГц
Битовая глубина : 16 бит
Метод сжатия : С потерями
Размер потока : 321 Мбайт (11%)
Заголовок : AC3 5.1 @ 448 kbps Оригинальный
Язык : French
Default : Нет
Forced : Нет
Текст
Идентификатор : 5
Формат : UTF-8
Идентификатор кодека : S_TEXT/UTF8
Идентификатор кодека/Информация : UTF-8 Plain Text
Язык : Russian
Default : Нет
Forced : Нет
Меню
00:00:00.000 : en:Chapter 01
00:06:54.320 : en:Chapter 02
00:12:13.839 : en:Chapter 03
00:18:02.560 : en:Chapter 04
00:26:55.159 : en:Chapter 05
00:37:16.760 : en:Chapter 06
00:48:43.760 : en:Chapter 07
00:59:52.560 : en:Chapter 08
01:09:16.479 : en:Chapter 09
01:18:23.880 : en:Chapter 10
01:25:36.920 : en:Chapter 11
01:33:42.320 : en:Chapter 12

Скриншоты:

--
-

Анжелика и король / Angelique et le roy:

Анжелика и король / Angelique et le roy Страна: Франция, Германия (ФРГ), Италия / Franco London Films
Жанр: мелодрама, приключения, история
Год выпуска: 1965
Продолжительность: 01:40:05
Перевод 1: Профессиональный (полное дублирование) Советский Дубляж + вставки НТВ
Перевод 2: Профессиональный (многоголосый закадровый) НТВ
Cубтитры: русские
Оригинальная аудиодорожка: французский
Режиссер: Бернар Бордери / Bernard Borderie
В ролях:
Мишель Мерсье, Робер Оссейн, Жан Рошфор, Клод Жиро, Джулиано Джемма, Шарль Ренье, Жак Тожа, Мадлен ЛеБо, Жан Топар, Бернар Воринже, Жан Озенн, Франсуа Мэтр, Робер Порт, Рената Эверт, Жак Кастело, Бернар Ла Жарриж, Розальба Нери, Андре Руйе, Клер Атана, Эллен Баль, Катрин Кларенс, Элизабет Эрси
Описание:
Король Людовик XIV дает Анжелике задание: уговорить персидского посла подписать договор с Францией. Решив, что цель оправдывает средства, она использует все свое очарование. Посол соглашается на сделку, но взамен требует прекрасную Анжелику…
Качество видео: BDRip-AVC |Angelique: Collection (1964-1968) {5-Disc Edition} Blu-ray 1080p AVC DTS-HD 5.1 HDCLUB|
Формат видео: MKV
Видео: AVC (x264), 1120x476 (2.35:1), ~3325 kbps, 25.000 fps, 0.249 bpp
Аудио 1: AС3, 48 KHz, 2 ch, 192 kbps - (DUB)
Аудио 2: AС3, 48 KHz, 2 ch, 192 kbps - (MVO)
Аудио 3: AС3, 48 KHz, 6 ch, 448 kbps - (ORG)
Формат субтитров: softsub (SRT)

MediaInfo

Общее
Уникальный идентификатор : 205185933177580125433542568515877600513 (0x9A5D5F8FC2E75516A337ABEF0775FD01)
Полное имя : H:\Анжелика. Коллекция_1964-1968.BDRip.(AVC)\3.Анжелика и король_1965\3_Angelique.Collection.BDRip(AVC).mkv
Формат : Matroska
Версия формата : Version 4 / Version 2
Размер файла : 2,91 Гбайт
Продолжительность : 1 ч. 40 м.
Общий поток : 4159 Кбит/сек
Название фильма : Анжелика: Коллекция / Angélique: Collection (1964-1968) [email protected]=-
Дата кодирования : UTC 2014-04-20 03:22:06
Программа кодирования : mkvmerge v6.9.1 ('Blue Panther') 64bit built on Apr 18 2014 18:23:38
Библиотека кодирования : libebml v1.3.0 + libmatroska v1.4.1
Видео
Идентификатор : 1
Формат : AVC
Формат/Информация : Advanced Video Codec
Профиль формата : [email protected]
Параметр CABAC формата : Да
Параметр ReFrames формата : 8 кадров
Идентификатор кодека : V_MPEG4/ISO/AVC
Продолжительность : 1 ч. 40 м.
Битрейт : 3324 Кбит/сек
Ширина : 1120 пикселей
Высота : 476 пикселей
Соотношение сторон : 2,35:1
Режим частоты кадров : Постоянный
Частота кадров : 25,000 кадров/сек
Цветовое пространство : YUV
Субдискретизация насыщенности : 4:2:0
Битовая глубина : 8 бит
Тип развёртки : Прогрессивная
Бит/(Пиксели*Кадры) : 0.249
Размер потока : 2,27 Гбайт (78%)
Заголовок : Rip by nnlabetik
Библиотека кодирования : x264 core 142 r2409 d6b4e63
Настройки программы : cabac=1 / ref=8 / deblock=1:-2:-2 / analyse=0x3:0x113 / me=umh / subme=11 / psy=1 / psy_rd=1.00:0.00 / mixed_ref=1 / me_range=32 / chroma_me=1 / trellis=2 / 8x8dct=1 / cqm=0 / deadzone=21,11 / fast_pskip=1 / chroma_qp_offset=-2 / threads=4 / lookahead_threads=1 / sliced_threads=0 / nr=0 / decimate=0 / interlaced=0 / bluray_compat=0 / constrained_intra=0 / bframes=16 / b_pyramid=2 / b_adapt=2 / b_bias=0 / direct=3 / weightb=1 / open_gop=0 / weightp=1 / keyint=250 / keyint_min=25 / scenecut=40 / intra_refresh=0 / rc_lookahead=40 / rc=2pass / mbtree=0 / bitrate=3324 / ratetol=1.0 / qcomp=0.60 / qpmin=0 / qpmax=69 / qpstep=4 / cplxblur=20.0 / qblur=0.5 / vbv_maxrate=50000 / vbv_bufsize=62500 / nal_hrd=none / filler=0 / ip_ratio=1.30 / pb_ratio=1.20 / aq=1:1.00
Язык : French
Default : Да
Forced : Нет
Аудио #1
Идентификатор : 2
Формат : AC-3
Формат/Информация : Audio Coding 3
Расширение режима : CM (complete main)
Параметр Endianness формата : Big
Идентификатор кодека : A_AC3
Продолжительность : 1 ч. 40 м.
Вид битрейта : Постоянный
Битрейт : 192 Кбит/сек
Каналы : 2 канала
Расположение каналов : Front: L R
Частота : 48,0 КГц
Битовая глубина : 16 бит
Метод сжатия : С потерями
Размер потока : 137 Мбайт (5%)
Заголовок : AC3 2.0 @ 192 kbps (Советский Дубляж)
Язык : Russian
Default : Да
Forced : Нет
Аудио #2
Идентификатор : 3
Формат : AC-3
Формат/Информация : Audio Coding 3
Расширение режима : CM (complete main)
Параметр Endianness формата : Big
Идентификатор кодека : A_AC3
Продолжительность : 1 ч. 40 м.
Вид битрейта : Постоянный
Битрейт : 192 Кбит/сек
Каналы : 2 канала
Расположение каналов : Front: L R
Частота : 48,0 КГц
Битовая глубина : 16 бит
Метод сжатия : С потерями
Размер потока : 137 Мбайт (5%)
Заголовок : AC3 2.0 @ 192 kbps (Многоголосый закадровый, НТВ)
Язык : Russian
Default : Нет
Forced : Нет
Аудио #3
Идентификатор : 4
Формат : AC-3
Формат/Информация : Audio Coding 3
Расширение режима : CM (complete main)
Параметр Endianness формата : Big
Идентификатор кодека : A_AC3
Продолжительность : 1 ч. 40 м.
Вид битрейта : Постоянный
Битрейт : 448 Кбит/сек
Каналы : 6 каналов
Расположение каналов : Front: L C R, Side: L R, LFE
Частота : 48,0 КГц
Битовая глубина : 16 бит
Метод сжатия : С потерями
Размер потока : 321 Мбайт (11%)
Заголовок : AC3 5.1 @ 448 kbps Оригинальный
Язык : French
Default : Нет
Forced : Нет
Текст
Идентификатор : 5
Формат : UTF-8
Идентификатор кодека : S_TEXT/UTF8
Идентификатор кодека/Информация : UTF-8 Plain Text
Язык : Russian
Default : Нет
Forced : Нет
Меню
00:00:00.000 : en:Chapter 01
00:08:44.280 : en:Chapter 02
00:19:04.400 : en:Chapter 03
00:24:30.159 : en:Chapter 04
00:33:24.120 : en:Chapter 05
00:39:55.640 : en:Chapter 06
00:45:21.160 : en:Chapter 07
00:54:29.960 : en:Chapter 08
01:04:42.920 : en:Chapter 09
01:13:43.920 : en:Chapter 10
01:22:37.439 : en:Chapter 11
01:33:00.320 : en:Chapter 12

Скриншоты:

--
-

Неукротимая Анжелика / Indomptable Angelique:

Неукротимая Анжелика / Indomptable Angelique Страна: Франция, Германия (ФРГ), Италия / Franco London Films
Жанр: мелодрама, приключения, история
Год выпуска: 1967
Продолжительность: 01:22:17
Перевод 1: Профессиональный (полное дублирование) Советский Дубляж + вставки НТВ
Перевод 2: Профессиональный (многоголосый закадровый) НТВ
Cубтитры: русские
Оригинальная аудиодорожка: французский
Режиссер: Бернар Бордери / Bernard Borderie
В ролях:
Мишель Мерсье, Робер Оссейн, Жан Рошфор, Клод Жиро, Джулиано Джемма, Шарль Ренье, Жак Тожа, Мадлен ЛеБо, Жан Топар, Бернар Воринже, Жан Озенн, Франсуа Мэтр, Робер Порт, Рената Эверт, Жак Кастело, Бернар Ла Жарриж, Розальба Нери, Андре Руйе, Клер Атана, Эллен Баль, Катрин Кларенс, Элизабет Эрси
Описание:
Поиски мужа приводят Анжелику к морскому побережью, где следы Жоффре де Пейрака обрываются… Капитан королевской галеры, пораженный красотой молодой женщины, принуждает ее подняться на борт и сопровождать его в плавании.
Качество видео: BDRip-AVC |Angelique: Collection (1964-1968) {5-Disc Edition} Blu-ray 1080p AVC DTS-HD 5.1 HDCLUB|
Формат видео: MKV
Видео: AVC (x264), 1120x476 (2.35:1), ~3400 kbps, 25.000 fps, 0.256 bpp
Аудио 1: AС3, 48 KHz, 2 ch, 192 kbps - (DUB)
Аудио 2: AС3, 48 KHz, 2 ch, 192 kbps - (MVO)
Аудио 3: AС3, 48 KHz, 6 ch, 448 kbps - (ORG) (дополнительно)
Формат субтитров: softsub (SRT)

MediaInfo

Общее
Уникальный идентификатор : 216234811542745826486387555048145386667 (0xA2AD4F52C850FDF18FF16AFCE0B57CAB)
Полное имя : H:\Анжелика. Коллекция_1964-1968.BDRip.(AVC)\4.Неукротимая Анжелика_1967\4_Angelique.Collection.BDRip(AVC).mkv
Формат : Matroska
Версия формата : Version 4 / Version 2
Размер файла : 2,18 Гбайт
Продолжительность : 1 ч. 22 м.
Общий поток : 3789 Кбит/сек
Название фильма : Анжелика: Коллекция / Angélique: Collection (1964-1968) [email protected]=-
Дата кодирования : UTC 2014-04-20 02:04:45
Программа кодирования : mkvmerge v6.9.1 ('Blue Panther') 64bit built on Apr 18 2014 18:23:38
Библиотека кодирования : libebml v1.3.0 + libmatroska v1.4.1
Видео
Идентификатор : 1
Формат : AVC
Формат/Информация : Advanced Video Codec
Профиль формата : [email protected]
Параметр CABAC формата : Да
Параметр ReFrames формата : 7 кадров
Идентификатор кодека : V_MPEG4/ISO/AVC
Продолжительность : 1 ч. 22 м.
Битрейт : 3406 Кбит/сек
Ширина : 1120 пикселей
Высота : 476 пикселей
Соотношение сторон : 2,35:1
Режим частоты кадров : Постоянный
Частота кадров : 25,000 кадров/сек
Цветовое пространство : YUV
Субдискретизация насыщенности : 4:2:0
Битовая глубина : 8 бит
Тип развёртки : Прогрессивная
Бит/(Пиксели*Кадры) : 0.256
Размер потока : 1,91 Гбайт (88%)
Заголовок : Rip by nnlabetik
Библиотека кодирования : x264 core 142 r2409 d6b4e63
Настройки программы : cabac=1 / ref=8 / deblock=1:-2:-2 / analyse=0x3:0x113 / me=umh / subme=11 / psy=1 / psy_rd=1.00:0.05 / mixed_ref=1 / me_range=32 / chroma_me=1 / trellis=2 / 8x8dct=1 / cqm=0 / deadzone=21,11 / fast_pskip=0 / chroma_qp_offset=-3 / threads=4 / lookahead_threads=1 / sliced_threads=0 / nr=0 / decimate=1 / interlaced=0 / bluray_compat=0 / constrained_intra=0 / bframes=16 / b_pyramid=1 / b_adapt=2 / b_bias=0 / direct=3 / weightb=1 / open_gop=0 / weightp=1 / keyint=250 / keyint_min=25 / scenecut=40 / intra_refresh=0 / rc_lookahead=40 / rc=2pass / mbtree=0 / bitrate=3406 / ratetol=1.4 / qcomp=0.70 / qpmin=0 / qpmax=69 / qpstep=4 / cplxblur=15.0 / qblur=0.5 / vbv_maxrate=50000 / vbv_bufsize=62500 / nal_hrd=none / filler=0 / ip_ratio=1.30 / pb_ratio=1.20 / aq=1:1.00
Язык : French
Default : Да
Forced : Нет
Аудио #1
Идентификатор : 2
Формат : AC-3
Формат/Информация : Audio Coding 3
Расширение режима : CM (complete main)
Параметр Endianness формата : Big
Идентификатор кодека : A_AC3
Продолжительность : 1 ч. 22 м.
Вид битрейта : Постоянный
Битрейт : 192 Кбит/сек
Каналы : 2 канала
Расположение каналов : Front: L R
Частота : 48,0 КГц
Битовая глубина : 16 бит
Метод сжатия : С потерями
Размер потока : 113 Мбайт (5%)
Заголовок : AC3 2.0 @ 192 kbps (Советский Дубляж)
Язык : Russian
Default : Да
Forced : Нет
Аудио #2
Идентификатор : 3
Формат : AC-3
Формат/Информация : Audio Coding 3
Расширение режима : CM (complete main)
Параметр Endianness формата : Big
Идентификатор кодека : A_AC3
Продолжительность : 1 ч. 22 м.
Вид битрейта : Постоянный
Битрейт : 192 Кбит/сек
Каналы : 2 канала
Расположение каналов : Front: L R
Частота : 48,0 КГц
Битовая глубина : 16 бит
Метод сжатия : С потерями
Размер потока : 113 Мбайт (5%)
Заголовок : AC3 2.0 @ 192 kbps (Многоголосый закадровый, НТВ)
Язык : Russian
Default : Нет
Forced : Нет
Текст
Идентификатор : 4
Формат : UTF-8
Идентификатор кодека : S_TEXT/UTF8
Идентификатор кодека/Информация : UTF-8 Plain Text
Default : Нет
Forced : Нет
Меню
00:00:00.000 : en:Chapter 01
00:06:38.120 : en:Chapter 02
00:16:12.680 : en:Chapter 03
00:23:33.680 : en:Chapter 04
00:28:25.119 : en:Chapter 05
00:37:32.000 : en:Chapter 06
00:48:06.680 : en:Chapter 07
00:57:46.640 : en:Chapter 08
01:04:30.640 : en:Chapter 09
01:10:54.560 : en:Chapter 10
01:15:31.200 : en:Chapter 11
01:19:19.479 : en:Chapter 12

Скриншоты:

--
-

Анжелика и султан / Angelique et le sultan:

Анжелика и султан / Angelique et le sultan Страна: Франция, Германия (ФРГ), Италия / Franco London Films
Жанр: мелодрама, приключения, история
Год выпуска: 1968
Продолжительность: 01:37:41
Перевод 1: Профессиональный (полное дублирование) Советский Дубляж + вставки НТВ
Перевод 2: Профессиональный (многоголосый закадровый) НТВ
Cубтитры: русские
Оригинальная аудиодорожка: французский
Режиссер: Бернар Бордери / Bernard Borderie
В ролях:
Мишель Мерсье, Робер Оссейн, Жан Рошфор, Клод Жиро, Джулиано Джемма, Шарль Ренье, Жак Тожа, Мадлен ЛеБо, Жан Топар, Бернар Воринже, Жан Озенн, Франсуа Мэтр, Робер Порт, Рената Эверт, Жак Кастело, Бернар Ла Жарриж, Розальба Нери, Андре Руйе, Клер Атана, Эллен Баль, Катрин Кларенс, Элизабет Эрси
Описание:
Анжелика оказывается на Востоке. Захваченная в плен воинами арабского султана, она попадает к нему в гарем, но в очередной раз доказывает свою преданность и любовь к мужу. Единственное чувство, согревающее сердце Анжелики, — это надежда вновь обрести своего возлюбленного…
Качество видео: BDRip-AVC |Angelique: Collection (1964-1968) {5-Disc Edition} Blu-ray 1080p AVC DTS-HD 5.1 HDCLUB|
Формат видео: MKV
Видео: AVC (x264), 1120x476 (2.35:1), ~3430 kbps, 24.000 fps, 0.268 bpp
Аудио 1: AС3, 48 KHz, 2 ch, 192 kbps - (DUB)
Аудио 2: AС3, 48 KHz, 2 ch, 192 kbps - (MVO)
Аудио 3: AС3, 48 KHz, 6 ch, 448 kbps - (ORG)
Формат субтитров: softsub (SRT)

MediaInfo

Общее
Уникальный идентификатор : 190708521500746073933115150647537676218 (0x8F79200E789562D884C92DC57737AFBA)
Полное имя : H:\Анжелика. Коллекция_1964-1968.BDRip.(AVC)\5.Анжелика и султан_1968\5_Angelique.Collection.BDRip(AVC).mkv
Формат : Matroska
Версия формата : Version 4 / Version 2
Размер файла : 2,91 Гбайт
Продолжительность : 1 ч. 37 м.
Общий поток : 4260 Кбит/сек
Название фильма : Анжелика: Коллекция / Angélique: Collection (1964-1968) [email protected]=-
Дата кодирования : UTC 2014-04-20 06:54:40
Программа кодирования : mkvmerge v6.9.1 ('Blue Panther') 64bit built on Apr 18 2014 18:23:38
Библиотека кодирования : libebml v1.3.0 + libmatroska v1.4.1
Видео
Идентификатор : 1
Формат : AVC
Формат/Информация : Advanced Video Codec
Профиль формата : [email protected]
Параметр CABAC формата : Да
Параметр ReFrames формата : 7 кадров
Идентификатор кодека : V_MPEG4/ISO/AVC
Продолжительность : 1 ч. 37 м.
Битрейт : 3428 Кбит/сек
Ширина : 1120 пикселей
Высота : 476 пикселей
Соотношение сторон : 2,35:1
Режим частоты кадров : Постоянный
Частота кадров : 24,000 кадра/сек
Цветовое пространство : YUV
Субдискретизация насыщенности : 4:2:0
Битовая глубина : 8 бит
Тип развёртки : Прогрессивная
Бит/(Пиксели*Кадры) : 0.268
Размер потока : 2,28 Гбайт (78%)
Заголовок : Rip by nnlabetik
Библиотека кодирования : x264 core 142 r2409 d6b4e63
Настройки программы : cabac=1 / ref=8 / deblock=1:-2:-2 / analyse=0x3:0x113 / me=umh / subme=11 / psy=1 / psy_rd=1.00:0.05 / mixed_ref=1 / me_range=32 / chroma_me=1 / trellis=2 / 8x8dct=1 / cqm=0 / deadzone=21,11 / fast_pskip=0 / chroma_qp_offset=-3 / threads=4 / lookahead_threads=1 / sliced_threads=0 / nr=0 / decimate=1 / interlaced=0 / bluray_compat=0 / constrained_intra=0 / bframes=16 / b_pyramid=1 / b_adapt=2 / b_bias=0 / direct=3 / weightb=1 / open_gop=0 / weightp=1 / keyint=240 / keyint_min=23 / scenecut=40 / intra_refresh=0 / rc_lookahead=40 / rc=2pass / mbtree=0 / bitrate=3428 / ratetol=1.4 / qcomp=0.70 / qpmin=0 / qpmax=69 / qpstep=4 / cplxblur=15.0 / qblur=0.5 / vbv_maxrate=50000 / vbv_bufsize=62500 / nal_hrd=none / filler=0 / ip_ratio=1.30 / pb_ratio=1.20 / aq=1:1.00
Язык : French
Default : Да
Forced : Нет
Аудио #1
Идентификатор : 2
Формат : AC-3
Формат/Информация : Audio Coding 3
Расширение режима : CM (complete main)
Параметр Endianness формата : Big
Идентификатор кодека : A_AC3
Продолжительность : 1 ч. 37 м.
Вид битрейта : Постоянный
Битрейт : 192 Кбит/сек
Каналы : 2 канала
Расположение каналов : Front: L R
Частота : 48,0 КГц
Битовая глубина : 16 бит
Метод сжатия : С потерями
Размер потока : 134 Мбайт (5%)
Заголовок : AC3 2.0 @ 192 kbps (Советский Дубляж)
Язык : Russian
Default : Да
Forced : Нет
Аудио #2
Идентификатор : 3
Формат : AC-3
Формат/Информация : Audio Coding 3
Расширение режима : CM (complete main)
Параметр Endianness формата : Big
Идентификатор кодека : A_AC3
Продолжительность : 1 ч. 37 м.
Вид битрейта : Постоянный
Битрейт : 192 Кбит/сек
Каналы : 2 канала
Расположение каналов : Front: L R
Частота : 48,0 КГц
Битовая глубина : 16 бит
Метод сжатия : С потерями
Размер потока : 134 Мбайт (5%)
Заголовок : AC3 2.0 @ 192 kbps (Многоголосый закадровый, НТВ)
Язык : Russian
Default : Нет
Forced : Нет
Аудио #3
Идентификатор : 4
Формат : AC-3
Формат/Информация : Audio Coding 3
Расширение режима : CM (complete main)
Параметр Endianness формата : Big
Идентификатор кодека : A_AC3
Продолжительность : 1 ч. 37 м.
Вид битрейта : Постоянный
Битрейт : 448 Кбит/сек
Каналы : 6 каналов
Расположение каналов : Front: L C R, Side: L R, LFE
Частота : 48,0 КГц
Битовая глубина : 16 бит
Метод сжатия : С потерями
Размер потока : 313 Мбайт (11%)
Заголовок : AC3 5.1 @ 448 kbps Оригинальный
Язык : French
Default : Нет
Forced : Нет
Текст
Идентификатор : 5
Формат : UTF-8
Идентификатор кодека : S_TEXT/UTF8
Идентификатор кодека/Информация : UTF-8 Plain Text
Язык : Russian
Default : Нет
Forced : Нет
Меню
00:00:00.000 : en:Chapter 01
00:03:06.833 : en:Chapter 02
00:13:23.666 : en:Chapter 03
00:21:02.708 : en:Chapter 04
00:31:00.625 : en:Chapter 05
00:38:14.791 : en:Chapter 06
00:43:27.833 : en:Chapter 07
00:59:33.541 : en:Chapter 08
01:08:17.583 : en:Chapter 09
01:17:19.916 : en:Chapter 10
01:23:17.916 : en:Chapter 11
01:32:15.583 : en:Chapter 12

Скриншоты:

--
-
Яндекс.Метрика
Рейтинг@Mail.ru