Ангел тьмы / Dark Angel (1989) BDRip 720p | 60fps

 

Создавать темы 20-Апр-2015 22:02

Ангел тьмы / Dark Angel (1989) BDRip 720p | 60fps«Jack Kane thought he'd busted every breed of crook on Earth. He has»- Информация о фильме
Название: Ангел тьмы
Оригинальное название: Dark Angel
Год выхода: 1989
Жанр: Ужасы, фантастика, боевик, триллер, драма, криминал
Режиссер: Крэйг Р. Бэксли
Продюсер: Джефф Янг, Марк Дэймон, Рафаэль Айзенман
В ролях:
Дольф Лундгрен, Брайан Бенбен, Бетси Брэнтли, Маттиас Хьюз, Джей Билас, Джим Хейни, Дэвид Экройд, Шерман Ховард, Сэм Андерсон, Марк Ловенталь...
Описание фильма:
Во время операции по задержанию наркоторговцев полицейский Джек Кейн теряет напарника и начинает расследование серии странных смертей — жертвы гибнут от невероятно большой дозы героина, хотя и не являются наркоманами.
Вместе с приставленным к нему напыщенным агентом ФБР Джек приходит к удивительному выводу: убийца никто иной, как инопланетный преступник, буквально выкачивающий мозг у своих жертв. Но может ли человек победить пришельца?
Страна: США
Студия: Vision Internationa, TransWorld Entertainment (TWE)
Продолжительность: 01:31:57
Перевод: Двухголосый закадровый, многоголосый закадровый, одноголосый закадровый
Субтитры: Вшитые, отключаемые
Язык субтитров: Русский (Full), Английский (Full)
Дата мировой премьеры:26 января 1990
Файл
Формат: MKV
Кодек: MPEG-4 AVC/H.264
Качество: BDRip 720p
Видео: ~ 9047 Кбит/сек, 1280 x 720, 59.940 кадров/сек
Аудио #1: AC3 2, 48.0 KHz, 192 Кбит/сек - Двухголосый закадровый, НТВ+
Аудио #2: AC3 2, 48.0 KHz, 192 Кбит/сек - Многоголосый закадровый, Нева-1 Отдельно
Аудио #3: AC3 2, 48.0 KHz, 192 Кбит/сек - Многоголосый закадровый, Ren-TV Отдельно
Аудио #4: AC3 2, 48.0 KHz, 192 Кбит/сек - Двухголосый закадровый, Видеофильм Отдельно
Аудио #5: AC3 2, 48.0 KHz, 192 Кбит/сек - Одноголосый закадровый Отдельно
Аудио #6: AC3 2, 48.0 KHz, 192 Кбит/сек - Авторский одноголосый закадровый, С.Визгунов Отдельно
Аудио #7: AC3 2, 48.0 KHz, 192 Кбит/сек - Авторский одноголосый закадровый, В.Горчаков Отдельно
Аудио #8: AC3 2, 48.0 KHz, 192 Кбит/сек - Авторский одноголосый закадровый, А.Гаврилов Отдельно

MediaInfo

Общее
Уникальный идентификатор : 250672902861407821186886717803824083084 (0xBC95D8510CD0ECE2AACAFD2055BAF08C)
Полное имя : D:\Торренты\Dark Angel 60fps.mkv
Формат : Matroska
Версия формата : Version 2
Размер файла : 6,05 Гбайт
Продолжительность : 1 ч. 31 м.
Общий поток : 9426 Кбит/сек
Дата кодирования : UTC 2015-04-19 19:24:32
Программа кодирования : mkvmerge v6.9.1 ('Blue Panther') 64bit built on Apr 18 2014 18:23:38
Библиотека кодирования : libebml v1.3.0 + libmatroska v1.4.1
Видео
Идентификатор : 1
Формат : AVC
Формат/Информация : Advanced Video Codec
Профиль формата : [email protected]
Параметр CABAC формата : Да
Параметр ReFrames формата : 6 кадров
Идентификатор кодека : V_MPEG4/ISO/AVC
Продолжительность : 1 ч. 31 м.
Битрейт : 9047 Кбит/сек
Ширина : 1280 пикселей
Высота : 720 пикселей
Соотношение сторон : 16:9
Режим частоты кадров : Постоянный
Частота кадров : 59,880 кадров/сек
Частота кадров в оригинале : 59,940 кадров/сек
Цветовое пространство : YUV
Субдискретизация насыщенности : 4:2:0
Битовая глубина : 8 бит
Тип развёртки : Прогрессивная
Бит/(Пиксели*Кадры) : 0.164
Размер потока : 5,81 Гбайт (96%)
Заголовок : Release by mimok
Библиотека кодирования : x264 core 130 r2273 b3065e6
Настройки программы : cabac=1 / ref=6 / deblock=1:0:0 / analyse=0x3:0x133 / me=umh / subme=8 / psy=1 / psy_rd=1.00:0.15 / mixed_ref=1 / me_range=20 / chroma_me=1 / trellis=2 / 8x8dct=1 / cqm=0 / deadzone=21,11 / fast_pskip=0 / chroma_qp_offset=-3 / threads=6 / lookahead_threads=2 / sliced_threads=0 / nr=0 / decimate=0 / interlaced=0 / bluray_compat=0 / constrained_intra=0 / bframes=8 / b_pyramid=2 / b_adapt=2 / b_bias=0 / direct=1 / weightb=1 / open_gop=0 / weightp=2 / keyint=250 / keyint_min=25 / scenecut=40 / intra_refresh=0 / rc=crf / mbtree=0 / crf=17.5 / qcomp=0.63 / qpmin=10 / qpmax=51 / qpstep=4 / ip_ratio=1.40 / pb_ratio=1.30 / aq=1:1.20
Default : Да
Forced : Нет
Аудио
Идентификатор : 2
Формат : AC-3
Формат/Информация : Audio Coding 3
Расширение режима : CM (complete main)
Параметр Endianness формата : Big
Идентификатор кодека : A_AC3
Продолжительность : 1 ч. 31 м.
Вид битрейта : Постоянный
Битрейт : 192 Кбит/сек
Каналы : 2 канала
Расположение каналов : Front: L R
Частота : 48,0 КГц
Битовая глубина : 16 бит
Метод сжатия : С потерями
Размер потока : 126 Мбайт (2%)
Заголовок : NTV+
Язык : Russian
Default : Да
Forced : Нет
Текст #1
Идентификатор : 3
Формат : UTF-8
Идентификатор кодека : S_TEXT/UTF8
Идентификатор кодека/Информация : UTF-8 Plain Text
Заголовок : Full
Язык : Russian
Default : Да
Forced : Нет
Текст #2
Идентификатор : 4
Формат : UTF-8
Идентификатор кодека : S_TEXT/UTF8
Идентификатор кодека/Информация : UTF-8 Plain Text
Заголовок : Full
Язык : English
Default : Нет
Forced : Нет

Скриншоты:

Яндекс.Метрика
Рейтинг@Mail.ru