[ Сегодня на трекере фрилич! Идет свободное скачивание без начисления Download ]

Сокровища О.К. (2013) BDRip

 

Создавать темы 30-Ноя-2013 20:05

-Сокровища О.К. (2013) BDRip- Год выпуска: 2013
Производство: Россия, Кинокомпания «Анно Домини»
Жанр: Комедия, Приключения
Перевод: Не требуется (русский) [Лицензия]
Субтитры: Отсутствуют
Дата мировой премьеры: 3 мая 2013
Дата российской премьеры: 1 мая 2013, «Двадцатый Век Фокс СНГ»
Дата выхода DVD релиза: 21 ноября 2013, «CP Дистрибуция»
Режиссер: Дмитрий Коробкин
Продюсер: Олег Сурков, Вадим Быркин, Андрей Николаев
Актеры: Алексей Воробьёв, Эльвира Ибрагимова, Мария Кожевникова, Байбулат Батуллин, Гоша Куценко, Сергей Шакуров, Виктор Вержбицкий, Ольга Волкова, Светлана Чуйкина, Сергей Никоненко, Юлия Березикова, В. Логвинов, Анвар Халилулаев, Халима Искандерова, Валентин Якупов, Денис Ясик, Михаил Водзуми
Описание фильма:Во время осады Казани Иваном Грозным прекрасная ханша Сююмбике приказывает спрятать несметные богатства в озере Кабан. И вот уже 500 лет судьба клада неизвестна…
В наши дни тайна сокровищ открывается обаятельному ловеласу Кириллу, и он устремляется на поиски заветного клада. На пути к богатствам Кирилл знакомится с неприступной красавицей Гулей, которая совершенно не собирается попадать под влияние чар авантюриста. Но совместные похождения и постоянно преследующая опасность заставляют молодых людей иначе посмотреть друг на друга. И неужели только сокровища могут стать главной наградой за опасные приключения?!

Продолжительность: 01:44:00
Качество видео: BDRip
Видеокодек: Xvid
Битрейт видео: ~867 Kbps
Размер кадра: 640x352
Аудиокодек: AC3 2.0
Битрейт аудио: 128 Kbps
Сэмпл: Скачать

MediaInfo

Общее
Полное имя : D:\Фильмы\Sokrovischa.OK.2013.O.BDRip.745Mb.avi
Формат : AVI
Формат/Информация : Audio Video Interleave
Размер файла : 747 Мбайт
Продолжительность : 1 ч. 44 м.
Общий поток : 1005 Кбит/сек
Программа кодирования : VirtualDubMod 1.5.10.3 (build 2550/release)
Библиотека кодирования : VirtualDubMod build 2550/release
Видео
Идентификатор : 0
Формат : MPEG-4 Visual
Профиль формата : Advanced [email protected]
Параметр BVOP формата : 2
Параметр QPel формата : Нет
Параметр GMC формата : Без точки перехода
Параметр матрицы формата : Выборочная
Идентификатор кодека : XVID
Идентификатор кодека/Подсказка : XviD
Продолжительность : 1 ч. 44 м.
Битрейт : 867 Кбит/сек
Ширина : 640 пикселей
Высота : 352 пикселя
Соотношение сторон : 16:9
Частота кадров : 25,000 кадров/сек
Цветовое пространство : YUV
Субдискретизация насыщенности : 4:2:0
Битовая глубина : 8 бит
Тип развёртки : Прогрессивная
Метод сжатия : С потерями
Бит/(Пиксели*Кадры) : 0.154
Размер потока : 645 Мбайт (86%)
Библиотека кодирования : XviD 1.2.1 (UTC 2008-12-04)
Аудио
Идентификатор : 1
Формат : AC-3
Формат/Информация : Audio Coding 3
Расширение режима : CM (complete main)
Параметр Endianness формата : Big
Идентификатор кодека : 2000
Продолжительность : 1 ч. 44 м.
Вид битрейта : Постоянный
Битрейт : 128 Кбит/сек
Каналы : 2 канала
Расположение каналов : Front: L R
Частота : 48,0 КГц
Битовая глубина : 16 бит
Метод сжатия : С потерями
Размер потока : 95,2 Мбайт (13%)
Выравнивание : Разделение по промежуткам
Продолжительность промежутка : 40 мс. (1,00 видеокадр)
Время предзагрузки промежутка : 500 мс.
Скриншоты:
Яндекс.Метрика
Рейтинг@Mail.ru