Приключения Тинтина: Тайна Единорога 3D / The Adventures of Tintin 3D (2011 г.) BDRip 1080p | 60fps

 

Создавать темы 18-Апр-2015 22:05

Приключения Тинтина: Тайна Единорога 3D / The Adventures of Tintin 3D Год выпуска: 2011 г.
Жанр: мультфильм, боевик, детектив, приключения, семейный
Страна: США, Новая Зеландия
Режиссер: Стивен Спилберг
Продолжительность: 1:46:51
Перевод: Профессиональный (дублированный)
В ролях:
Джейми Белл, Энди Серкис, Дэниэл Крэйг, Саймон Пегг, Кэри Элвис, Тоби Джонс, Ник Фрост, Себастьян Роше, Маккензи Крук, Тони Карран
Описание:
Главный герой — молодой газетный репортёр Тинтин. Благодаря своей профессии он путешествует по всему миру и становится участником увлекательных приключений.
Формат видео: MKV
Формат 3D : HSBS/ Горизонтальная анаморфная стереопара
Порядок ракурсов: Левый ракурс первый
Качество видео: BDRip 1080p | 60fps
Видео кодек: H.264
Аудио кодек: AC3
Видео: 1920x816 (2.35:1), 59.940 fps, AVC, 32.5 Mbps
Аудио: AC3, 640 Kbps, 48.0 KHz, 6 ch

Отчёт MediaInfo

General
Complete name : Приключения Тинтина - тайна единорога 3D - 60fps.mkv
Format : Matroska
File size : 24.3 GiB
Duration : 1h 40mn
Overall bit rate : 34.6 Mbps
Encoded date : UTC 2010-02-22 21:41:29
Writing application : XviD4PSP 6.0 / 54.3.100
Writing library : XviD4PSP 6.0 / 54.3.100
Video
ID : 1
Format : AVC
Format/Info : Advanced Video Codec
Format profile : [email protected]
Format settings, CABAC : Yes
Format settings, ReFrames : 4 frames
Muxing mode : Container [email protected]
Codec ID : V_MPEG4/ISO/AVC
Duration : 1h 40mn
Bit rate : 32.5 Mbps
Width : 1 920 pixels
Height : 816 pixels
Display aspect ratio : 2.35:1
Frame rate : 59.940 fps
Color space : YUV
Chroma subsampling : 4:2:0
Bit depth : 8 bits
Scan type : Progressive
Bits/(Pixel*Frame) : 0.347
Stream size : 23.4 GiB (96%)
Writing library : x264 core 130 r2273 b3065e6
Encoding settings : cabac=1 / ref=4 / deblock=1:0:0 / analyse=0x3:0x113 / me=tesa / subme=7 / psy=1 / psy_rd=1.00:0.00 / mixed_ref=1 / me_range=16 / chroma_me=1 / trellis=2 / 8x8dct=1 / cqm=0 / deadzone=21,11 / fast_pskip=1 / chroma_qp_offset=-2 / threads=12 / lookahead_threads=2 / sliced_threads=0 / nr=0 / decimate=1 / interlaced=0 / bluray_compat=0 / constrained_intra=0 / bframes=6 / b_pyramid=2 / b_adapt=1 / b_bias=0 / direct=3 / weightb=1 / open_gop=0 / weightp=2 / keyint=250 / keyint_min=25 / scenecut=40 / intra_refresh=0 / rc_lookahead=40 / rc=2pass / mbtree=1 / bitrate=32543 / ratetol=1.0 / qcomp=0.60 / qpmin=0 / qpmax=69 / qpstep=4 / cplxblur=20.0 / qblur=0.5 / ip_ratio=1.40 / aq=1:1.00
Language : English
Audio
ID : 2
Format : AC-3
Format/Info : Audio Coding 3
Mode extension : CM (complete main)
Codec ID : A_AC3
Duration : 1h 40mn
Bit rate mode : Constant
Bit rate : 640 Kbps
Channel(s) : 6 channels
Channel positions : Front: L C R, Side: L R, LFE
Sampling rate : 48.0 KHz
Bit depth : 16 bits
Stream size : 460 MiB (2%)
Language : Russian

Скриншоты:

Яндекс.Метрика
Рейтинг@Mail.ru