Мордекай / Mortdecai (2015,Комедия, боевик) WEB-DLRip | L1

 

Создавать темы 18-Апр-2015 17:55

-Мордекай / Mortdecai (2015) - Информация о фильме
Название: Мордекай
Оригинальное название: Mortdecai
Год выхода: 2015
Жанр: Комедия, боевик
Режиссер: Дэвид Кепп
В ролях: Джонни Депп, Гвинет Пэлтроу, Пол Беттани, Эван МакГрегор, Оливия Манн, Джонатон Пасвольски, Майкл Калкин, Ульрих Томсен, Алек Утгофф, Роб де Гроот, Гай Бернет, Джефф Голдблюм, Антти Хакала, Пол Уайтхаус, Норма Аталла, Николас Фэррел, Карл Теобалд, Камилла Бипут, Майкл Бирн, Эмили Лоуренс
О фильме:
В центре сюжета — история Чарльза Мордекая, обходительного арт-дельца и жулика по совместительству, который путешествует по всему миру и с помощью своего неотразимого обаяния пытается раздобыть украденную картину. По слухам, в этом произведении искусства содержится код доступа к банковской ячейке, наполненной нацистским золотом. По ходу Мордекаю приходится улаживать дела с недобрыми русскими, британской разведкой Mi5, международным террористом и со своей умопомрачительно длинноногой женой.-- --Страна: США
Студия: Infinitum Nihil Production, Mad Chance Productions, Mort Productions, Odd Lot Entertainment
Продолжительность: 01:46:44
Перевод: Любительский одноголосый
Файл
Кодек: AVI (XviD)
Качество: WEB-DLRip (Исх. WEB-DL 720p)
Видео: 656x272 (2.41:1), 23.976 fps, XviD build 73 ~839 kbps avg, 0.20 bit/pixel
Звук: 48 kHz, MPEG Layer 3, 2 ch, ~128.00 kbps avg
Субтитры: нет

MediaInfo

Общее
Полное имя : S:ФильмыМордекай. 2015. WEB-DLRip. 745 (AleksSin).avi
Формат : AVI
Формат/Информация : Audio Video Interleave
Размер файла : 745 Мбайт
Продолжительность : 1 ч. 46 м.
Общий поток : 976 Кбит/сек
Программа кодирования : VirtualDubMod 1.5.10.3 | www.virtualdub-fr.org || (build 2550/release)
Библиотека кодирования : VirtualDubMod build 2550/release
Видео
Идентификатор : 0
Формат : MPEG-4 Visual
Профиль формата : Advanced [email protected]
Параметр BVOP формата : 1
Параметр QPel формата : Нет
Параметр GMC формата : Без точки перехода
Параметр матрицы формата : Выборочная
Идентификатор кодека : XVID
Идентификатор кодека/Подсказка : XviD
Продолжительность : 1 ч. 46 м.
Битрейт : 839 Кбит/сек
Ширина : 656 пикс.
Высота : 272 пикс.
Соотношение сторон : 2,40:1
Частота кадров : 23,976 кадр/сек
Цветовое пространство : YUV
Подвыборка цветности : 4:2:0
Битовая глубина : 8 бит
Тип развёртки : Прогрессивная
Метод сжатия : С потерями
Бит/(Пиксели*Кадры) : 0.196
Размер потока : 641 Мбайт (86%)
Библиотека кодирования : XviD 73
Аудио
Идентификатор : 1
Формат : MPEG Audio
Версия формата : Version 1
Профиль формата : Layer 3
Идентификатор кодека : 55
Идентификатор кодека/Подсказка : MP3
Продолжительность : 1 ч. 46 м.
Вид битрейта : Постоянный
Битрейт : 128 Кбит/сек
Каналы : 2 канала
Частота : 48,0 КГц
Метод сжатия : С потерями
Размер потока : 97,7 Мбайт (13%)
Выравнивание : Соединение по промежуткам
Продолжительность промежутка : 42 мс. (1,00 видеокадр)
Время предзагрузки промежутка : 504 ms
Библиотека кодирования : LAME3.99r
Настройки программы : -m s -V 4 -q 2 -lowpass 17 -b 128

Скриншоты

Яндекс.Метрика
Рейтинг@Mail.ru