[ Сегодня на трекере фрилич! Идет свободное скачивание без начисления Download ]

Крылышко или ножка / L'aile ou la cuisse (Клод Зиди)[1976,Комедия, DVDRip] от New-Team

 

Создавать темы 30-Ноя-2013 08:10

Крылышко или ножка / L'aile ou la cuisse- Год выпуска: 1976
Страна: Франция
Жанр: Комедия
Продолжительность: 01:40:38
Перевод: Профессиональный (многоголосый, закадровый)
Субтитры: нет
Режиссер: Клод Зиди / Claude Zidi
В ролях: Луи де Фюнес, Колюш, Энн Захариас, Жюльен Гиомар, Клод Жансак, Жорж Шамара, Жан Мартен, Фернан Гио, Жерар Букарон, Антуан Марен
Описание: Главный герой мсье Дюшемен — респектабельный составитель ежегодного справочника-путеводителя по ресторанам. Авторитет его книги настолько высок, что все рестораны в Париже и его окрестностях стремятся предстать на ее страницах в выгодном свете.
Это очень трудно, поскольку Дюшемен все время сам обходит все заведения, переодеваясь, чтобы оставаться не узнанным. Единственное разочарование Дюшемена — его сын, который не желает идти по стопам отца, мечтая стать клоуном в цирке…-
Качество: DVDRip
Формат: AVI
Видео кодек: XviD
Аудио кодек: AC3
Видео: 704x304 (2.32:1), 25 fps, XviD build 73 ~1871 kbps avg, 0.35 bit/pixel
Аудио: 48 kHz, AC3 Dolby Digital, 2/0 (L,R) ch, ~192 kbps-

Скриншоты

MI

D:Мои рипыL'aile.ou.la.cuisse.DVDRip.dexter_lex.avi
General
Complete name : D:Мои рипыL'aile.ou.la.cuisse.DVDRip.dexter_lex.avi
Format : AVI
Format/Info : Audio Video Interleave
File size : 1.46 GiB
Duration : 1h 40mn
Overall bit rate : 2 073 Kbps
Writing application : VirtualDubMod 1.5.10.3 | www.virtualdub-fr.org || (build 2550/release)
Writing library : VirtualDubMod build 2550/release
Video #0
ID : 0
Format : MPEG-4 Visual
Format profile : Advanced [email protected]
Format settings, BVOP : 1
Format settings, QPel : No
Format settings, GMC : No warppoints
Format settings, Matrix : Custom
Codec ID : XVID
Codec ID/Hint : XviD
Duration : 1h 40mn
Bit rate : 1 872 Kbps
Width : 704 pixels
Height : 304 pixels
Display aspect ratio : 2.35:1
Frame rate : 25.000 fps
Color space : YUV
Chroma subsampling : 4:2:0
Bit depth : 8 bits
Scan type : Progressive
Compression mode : Lossy
Bits/(Pixel*Frame) : 0.350
Stream size : 1.32 GiB (90%)
Writing library : XviD 73
Audio #1
ID : 1
Format : AC-3
Format/Info : Audio Coding 3
Mode extension : CM (complete main)
Codec ID : 2000
Duration : 1h 40mn
Bit rate mode : Constant
Bit rate : 192 Kbps
Channel(s) : 2 channels
Channel positions : Front: L R
Sampling rate : 48.0 KHz
Bit depth : 16 bits
Compression mode : Lossy
Stream size : 138 MiB (9%)
Alignment : Split accross interleaves
Interleave, duration : 40 ms (1.00 video frame)
Interleave, preload duration : 500 ms
Яндекс.Метрика
Рейтинг@Mail.ru