[ Сегодня на трекере фрилич! Идет свободное скачивание без начисления Download ]

Мальчик большой мамочки / Big Mamma's Boy ( Франко ди Кьера)[2011, комедия, BDRip 1080p] от CINEMANIA | НТВ+

 

Создавать темы 30-Ноя-2013 05:24

Информация о фильме
Название: Мальчик большой мамочки
Оригинальное название: Big Mamma's Boy
Год выхода: 2011
Жанр: комедия
Режиссер: Франко ди Кьера
В ролях: Френк Лолито, Холли Вэлэнс, Кармелина Ди Гульельмо, Освальдо Майон, Джордж Капиньярис, Стив Музакис, Ник Фарнелл, Кассандра Маграт, Сачин Джоаб, Джим Расселл
О фильме:
35-летнего Рокко до сих пор опекает, как маленького, его пожилая мать. Причем делает это настолько назойливо, что под угрозой оказываются его отношения с любимой девушкой.

Выпущено: Австралия
Продолжительность: 01:38:06
Озвучивание: Профессиональное (многоголосое) [Нтв+]
Файл
Формат: MKV
Качество: BDRip 1080p [aAF]
Видео: 8932 kb/s, 1920x1080
Аудио: Russian: AC3, 192 kb/s (2 ch) / English: AC3, 640 kb/s (2 ch)
Субтитры: English
Размер: 6.69 GB
Скачать: Сэмпл

NFO

General
Big.Mammas.Boy.2011.BDRip.1080p.CINEMANIA.mkv
Format : Matroska
Format version : Version 4 / Version 2
File size : 6.69 GiB
Duration : 1h 38mn
Overall bit rate : 9 761 Kbps
Movie name : Release Group CINEMANIA
Encoded date : UTC 2013-11-29 19:27:46
Writing application : mkvmerge v6.5.0 ('Isn't she lovely') built on Oct 20 2013 12:50:05
Writing library : libebml v1.3.0 + libmatroska v1.4.1
Video
ID : 1
Format : AVC
Format/Info : Advanced Video Codec
Format profile : [email protected]
Format settings, CABAC : Yes
Format settings, ReFrames : 4 frames
Codec ID : V_MPEG4/ISO/AVC
Duration : 1h 38mn
Bit rate : 8 932 Kbps
Width : 1 920 pixels
Height : 1 080 pixels
Display aspect ratio : 16:9
Frame rate mode : Constant
Frame rate : 24.000 fps
Color space : YUV
Chroma subsampling : 4:2:0
Bit depth : 8 bits
Scan type : Progressive
Bits/(Pixel*Frame) : 0.179
Stream size : 5.99 GiB (89%)
Title : Release Group CINEMANIA
Writing library : x264 core 120 r2164 da19765
Encoding settings : cabac=1 / ref=4 / deblock=1:0:0 / analyse=0x3:0x133 / me=umh / subme=8 / psy=1 / psy_rd=1.00:0.00 / mixed_ref=1 / me_range=16 / chroma_me=1 / trellis=1 / 8x8dct=1 / cqm=0 / deadzone=21,11 / fast_pskip=0 / chroma_qp_offset=-2 / threads=12 / sliced_threads=0 / nr=0 / decimate=1 / interlaced=0 / bluray_compat=0 / constrained_intra=0 / bframes=3 / b_pyramid=2 / b_adapt=1 / b_bias=0 / direct=1 / weightb=1 / open_gop=0 / weightp=2 / keyint=250 / keyint_min=25 / scenecut=40 / intra_refresh=0 / rc_lookahead=40 / rc=2pass / mbtree=1 / bitrate=8932 / ratetol=1.0 / qcomp=0.60 / qpmin=0 / qpmax=69 / qpstep=4 / cplxblur=20.0 / qblur=0.5 / ip_ratio=1.40 / aq=1:1.00
Language : English
Default : Yes
Forced : No
Audio #1
ID : 2
Format : AC-3
Format/Info : Audio Coding 3
Mode extension : CM (complete main)
Format settings, Endianness : Big
Codec ID : A_AC3
Duration : 1h 38mn
Bit rate mode : Constant
Bit rate : 192 Kbps
Channel(s) : 2 channels
Channel positions : Front: L R
Sampling rate : 48.0 KHz
Bit depth : 16 bits
Compression mode : Lossy
Stream size : 135 MiB (2%)
Title : Нтв+
Language : Russian
Default : Yes
Forced : Yes
Audio #2
ID : 3
Format : AC-3
Format/Info : Audio Coding 3
Mode extension : CM (complete main)
Format settings, Endianness : Big
Codec ID : A_AC3
Duration : 1h 38mn
Bit rate mode : Constant
Bit rate : 640 Kbps
Channel(s) : 6 channels
Channel positions : Front: L C R, Side: L R, LFE
Sampling rate : 48.0 KHz
Bit depth : 16 bits
Compression mode : Lossy
Stream size : 449 MiB (7%)
Language : English
Default : No
Forced : No
Text
ID : 4
Format : UTF-8
Codec ID : S_TEXT/UTF8
Codec ID/Info : UTF-8 Plain Text
Language : English
Default : No
Forced : No

Создавать темы 30-Ноя-2013 06:00 (спустя 36 минут)

Топик был перенесен из форума Зарубежные Фильмы (HD*Rip/LQ, DVDRip, SATRip, VHSRip) в форум Зарубежные Фильмы (HD)
[email protected]
Яндекс.Метрика
Рейтинг@Mail.ru