[ Сегодня на трекере фрилич! Идет свободное скачивание без начисления Download ]

Контакт / Contact (1997) BDRip [H.264/1080p]

 

Создавать темы 14-Апр-2015 19:37

--Контакт / Contact (1997) BDRip--
  • Производство: США / Warner Bros. Pictures
    Жанр: Фантастика, Триллер, Драма, Детектив
    Режиссер: Роберт Земекис
    Актеры: Джоди Фостер, Мэттью МакКонахи, Джена Мэлоун, Дэвид Морс, Уильям Фихтнер, Джеффри Блейк, Том Скеррит, Джеймс Вудс, Джейк Бьюзи, Джон Хёрт
    Описание:
    Радиоастроном доктор Элли Эрроуэй мечтала о звездах с детских лет, когда вместе с отцом занималась радиолюбительством и выходила на связь в эфир. Она рано потеряла родителей и думала, что они где-то далеко, в пространстве…-
    Продолжительность: 02:29:41
    Качество видео: BDRip
    Перевод: Дублированный, Двуголосый закадровый, Одноголосый закадровый
    Язык субтитров: Русский, Английский
    Вид субтитров: Вшитые отключаемые
    Видео: AVC/H.264, ~8298 kbps, 1920 x 800, 23,976 fps
    Аудио 1: Русский, AC3 5.1, 384 kbps, 48 kHz (DUB, R5)
    Аудио 2: Русский, AC3 2.0, 192 kbps, 48 kHz (DUB, НТВ - Варус Видео)
    Аудио 3: Русский, AC3 2.0, 192 kbps, 48 kHz (DVO, тк Россия)
    Аудио 4: Русский, DTS 5.1, 1509 kbps, 48 kHz (AVO, А.Васильцев)
    Аудио 5: Русский, DTS 5.1, 1509 kbps, 48 kHz (AVO, Ю.Живов)
    Аудио 6: Английский, DTS 5.1, 1509 kbps, 48 kHz (Original)
    Аудио 7: Английский, AC3 2.0, 192 kbps, 48 kHz (Director + Producer Commentary)
    Аудио 8: Английский, AC3 2.0, 192 kbps, 48 kHz (Jodie Foster Commentary)
    Аудио 9: Английский, AC3 2.0, 192 kbps, 48 kHz (Visual Effect Commentary)-

    Награды:

    Оскар, 1998 год
    Номинации (1):
    ## Лучший звук
    Золотой глобус, 1998 год
    Номинации (1):
    ## Лучшая женская роль (драма) (Джоди Фостер)
    Сатурн, 1998 год
    Победитель (2):
    ## Лучшая актриса (Джоди Фостер)
    ## Лучший молодой актер/актриса (Джена Мэлоун)
    Номинации (5):
    ## Лучший научно-фантастический фильм
    ## Лучший режиссер (Роберт Земекис)
    ## Лучшие спецэффекты
    ## Лучшая музыка
    ## Лучший сценарий

Знаете ли вы, что...

    • Фильм снят по мотивам романа Карла Сагана «Контакт» (Contact, 1985).
    • «Контакт» (1997) оказался на втором месте в списке наиболее достоверных научно-фантастических фильмов по версии НАСА.
    • В конце фильма, на фоне звездного неба появляется надпись FOR CARL, речь идет о Карле Сагане, по роману которого был снят фильм: он скончался в декабре 1996 года, пока шли съёмки фильма.
    • На режиссёрское кресло в разное время претендовали Роланд Жоффе и Джордж Миллер. В 1993 году пригласили Роберта Земекиса, но в тот момент он отверг предложение. Повторно он был приглашён в 1996-м и дал согласие, выдвинув ряд условий: самостоятельный подбор артистов и невмешательство со стороны студии в окончательный монтаж.
    • Элли работала в Аресибо — там, где было послано реальное послание внеземным цивилизациям.
    • В самом начале фильма, когда на экране показана Земля из космоса, звучит какофония из звуков — «озвучивание» сигналов радиостанций, уходящих в космос, среди прочих отрывков мелодий, есть отрывок из песни «The power of love» — саундтрек к другому фильму Роберта Земекиса — «Назад в будущее» (1985).
    • В фильме числа кодировались количеством импульсов (два импульса, три импульса, пять импульсов, семь импульсов), хотя в романе Карла Сагана для этого использовалась двоичная система счисления.
    • Кип Торн консультировал Карла Сагана (автора романа) по научным вопросам. В частности, как говорит Торн в своей книге «Чёрные дыры и складки времени», изначально Саган планировал отправить героя в путешествие через чёрную дыру, но Торн порекомендовал использовать червоточину (кротовую нору).

Ошибки в фильме

• В сцене, где героиня Джоди Фостер заходит домой, на экране её лэптопа написано на английском «нажмите на любую клавишу». Далее она нажимает клавишу, и появляются надписи на русском с орфографическими ошибками: «Соединается со сателлитом» (Соединяется с сателлитом), и «Утвержлается Безопасность» (Утверждается безопасность).

Из книги «3500 кинорецензий»

  • Фантастический фильм
    Эта лента американского режиссёра Роберта Земекиса, протеже Стивена Спилберга, сразу же была воспринята как достойный ответ ученика вместо учителя на нападки своего рода «пришельцев в Голливуде» (в частности, Роланда Эммериха в суперхите «День независимости»), которые считали, что Спилберг, как создатель фильмов «Близкие контакты третьего вида» и «Е. Т., Инопланетянин», немало навредил человечеству, уверяя, что с инопланетными существами возможен нормальный контакт. А вот в картине Земекиса, созданной на основе романа бывшего астронома Карла Сэгана, который не дожил нескольких месяцев до премьеры, как раз присутствует детально разработанная научно-фантастическая тема поиска контакта с внеземными цивилизациями.
    Справедливы мнения также и о том, что «Контакт» вступил — и довольно рискованно — в определённую оппозицию с американскими понятиями политкорректности, не только используя без специального разрешения и в ином контексте документальные съёмки тогдашнего президента США. Намного существеннее, что в этой ленте заостряется обычно микшируемый спор о соотношении веры в Бога и научного стремления к познанию Истины как раз у тех, кто занят, так или иначе, космическими исследованиями, а тем более — установлением Контакта, общением с Неведомым на глобальном уровне.
    Однако ещё интереснее подспудный пласт «Контакта», что позволяет объяснить некоторые мелодраматические излишества, которые смущают даже сторонников картины. Для актрисы Джоди Фостер, почему-то (вопреки предварительным прогнозам) не номинированной на «Оскар», роль молодой женщины-радиоастронома Элинор Эрроуэй стала первой работой после трёхлетнего отсутствия на экране, а её предыдущей героиней была лишённая контакта с человеческой цивилизацией, кажущаяся инопланетянкой, почти глухонемая Нелл из одноимённого фильма. Роберт Земекис тоже впервые за три года после многократно оскароносного «Форреста Гампа» обратился к режиссуре, по-своему обыграв тему не вписываемого в современную действительность чудака — только теперь этот «Гамп женского рода» ищет взаимопонимания в далёком космосе, будучи оставленной близкими и непризнанной чужими людьми на Земле.
    И обретение Элинор в «межгалактическом раю» (или же она видит это лишь в своём воображаемом путешествии сквозь световые годы, что не так уж и важно!) собственного рано утраченного отца очень похоже на то, как странствовавший через времена, мимо исторических событий и знаменитостей Форрест Гамп находил окончательное умиротворение в обычной семье, прежде всего — в заботе о более талантливом сыне. Вот и в намеренно пафосном финале «Контакта» дети, которых обучает Элинор Эрроуэй, надеясь на то, что в будущем именно они продвинутся ещё дальше в постижении Неизвестного, оправдывают её подлинные поиски контакта. А искала ли она что-то другое, кроме собственного покоя бытия?
  • Mediainfo:

    • Код:
      Общее
      Уникальный идентификатор : 250072785728234392338627557272758272381 (0xBC224441EE72F629B6F5525AD000417D)
      Полное имя : D:\Films\Contact.1997.1080p.BDRip.mkv
      Формат : Matroska
      Версия формата : Version 2
      Размер файла : 14,8 Гбайт
      Продолжительность : 2 ч. 29 м.
      Общий поток : 14,2 Мбит/сек
      Дата кодирования : UTC 2015-04-14 08:07:28
      Программа кодирования : mkvmerge v5.2.0 ('I can't explain') built on Dec 18 2011 18:12:03
      Библиотека кодирования : libebml v1.2.3 + libmatroska v1.3.0
      Видео
      Идентификатор : 1
      Формат : AVC
      Формат/Информация : Advanced Video Codec
      Профиль формата : [email protected]
      Параметр CABAC формата : Да
      Параметр ReFrames формата : 5 кадров
      Идентификатор кодека : V_MPEG4/ISO/AVC
      Продолжительность : 2 ч. 29 м.
      Битрейт : 8298 Кбит/сек
      Ширина : 1920 пикселей
      Высота : 800 пикселей
      Соотношение сторон : 2,40:1
      Режим частоты кадров : Постоянный
      Частота кадров : 23,976 кадра/сек
      Цветовое пространство : YUV
      Субдискретизация насыщенности : 4:2:0
      Битовая глубина : 8 бит
      Тип развёртки : Прогрессивная
      Бит/(Пиксели*Кадры) : 0.225
      Размер потока : 8,38 Гбайт (57%)
      Библиотека кодирования : x264 core 78 r1309M 4d77de8
      Настройки программы : cabac=1 / ref=5 / deblock=1:-3:-3 / analyse=0x3:0x113 / me=umh / subme=10 / psy=1 / psy_rd=1.0:0.0 / mixed_ref=1 / me_range=32 / chroma_me=1 / trellis=2 / 8x8dct=1 / cqm=0 / deadzone=21,11 / chroma_qp_offset=-2 / threads=3 / nr=0 / decimate=0 / mbaff=0 / constrained_intra=0 / bframes=6 / b_pyramid=2 / b_adapt=2 / b_bias=0 / direct=3 / wpredb=1 / keyint=250 / keyint_min=25 / scenecut=40 / rc=2pass / mbtree=0 / bitrate=8298 / ratetol=1.0 / qcomp=0.60 / qpmin=10 / qpmax=51 / qpstep=4 / cplxblur=20.0 / qblur=0.5 / ip_ratio=1.40 / pb_ratio=1.30 / aq=1:0.90
      Язык : English
      Default : Да
      Forced : Нет
      Аудио #1
      Идентификатор : 2
      Формат : AC-3
      Формат/Информация : Audio Coding 3
      Расширение режима : CM (complete main)
      Параметр Endianness формата : Big
      Идентификатор кодека : A_AC3
      Продолжительность : 2 ч. 29 м.
      Вид битрейта : Постоянный
      Битрейт : 384 Кбит/сек
      Каналы : 6 каналов
      Расположение каналов : Front: L C R, Side: L R, LFE
      Частота : 48,0 КГц
      Битовая глубина : 16 бит
      Метод сжатия : С потерями
      Задержка видео : 70 мс.
      Размер потока : 411 Мбайт (3%)
      Заголовок : DUB, R5
      Язык : Russian
      Default : Да
      Forced : Нет
      Аудио #2
      Идентификатор : 3
      Формат : AC-3
      Формат/Информация : Audio Coding 3
      Расширение режима : CM (complete main)
      Параметр Endianness формата : Big
      Идентификатор кодека : A_AC3
      Продолжительность : 2 ч. 29 м.
      Вид битрейта : Постоянный
      Битрейт : 192 Кбит/сек
      Каналы : 2 канала
      Расположение каналов : Front: L R
      Частота : 48,0 КГц
      Битовая глубина : 16 бит
      Метод сжатия : С потерями
      Размер потока : 206 Мбайт (1%)
      Заголовок : DUB, НТВ - Варус Видео
      Язык : Russian
      Default : Нет
      Forced : Нет
      Аудио #3
      Идентификатор : 4
      Формат : AC-3
      Формат/Информация : Audio Coding 3
      Расширение режима : CM (complete main)
      Параметр Endianness формата : Big
      Идентификатор кодека : A_AC3
      Продолжительность : 2 ч. 29 м.
      Вид битрейта : Постоянный
      Битрейт : 192 Кбит/сек
      Каналы : 2 канала
      Расположение каналов : Front: L R
      Частота : 48,0 КГц
      Битовая глубина : 16 бит
      Метод сжатия : С потерями
      Размер потока : 206 Мбайт (1%)
      Заголовок : DVO, тк Россия
      Язык : Russian
      Default : Нет
      Forced : Нет
      Аудио #4
      Идентификатор : 5
      Формат : DTS
      Формат/Информация : Digital Theater Systems
      Режим : 16
      Параметр Endianness формата : Big
      Идентификатор кодека : A_DTS
      Продолжительность : 2 ч. 29 м.
      Вид битрейта : Постоянный
      Битрейт : 1509 Кбит/сек
      Каналы : 6 каналов
      Расположение каналов : Front: L C R, Side: L R, LFE
      Частота : 48,0 КГц
      Битовая глубина : 16 бит
      Метод сжатия : С потерями
      Размер потока : 1,58 Гбайт (11%)
      Заголовок : AVO, А.Васильцев
      Язык : Russian
      Default : Нет
      Forced : Нет
      Аудио #5
      Идентификатор : 6
      Формат : DTS
      Формат/Информация : Digital Theater Systems
      Режим : 16
      Параметр Endianness формата : Big
      Идентификатор кодека : A_DTS
      Продолжительность : 2 ч. 29 м.
      Вид битрейта : Постоянный
      Битрейт : 1509 Кбит/сек
      Каналы : 6 каналов
      Расположение каналов : Front: L C R, Side: L R, LFE
      Частота : 48,0 КГц
      Битовая глубина : 24 бит
      Метод сжатия : С потерями
      Размер потока : 1,58 Гбайт (11%)
      Заголовок : AVO, Ю.Живов
      Язык : Russian
      Default : Нет
      Forced : Нет
      Аудио #6
      Идентификатор : 7
      Формат : DTS
      Формат/Информация : Digital Theater Systems
      Режим : 16
      Параметр Endianness формата : Big
      Идентификатор кодека : A_DTS
      Продолжительность : 2 ч. 29 м.
      Вид битрейта : Постоянный
      Битрейт : 1509 Кбит/сек
      Каналы : 6 каналов
      Расположение каналов : Front: L C R, Side: L R, LFE
      Частота : 48,0 КГц
      Битовая глубина : 24 бит
      Метод сжатия : С потерями
      Размер потока : 1,58 Гбайт (11%)
      Заголовок : Original
      Язык : English
      Default : Нет
      Forced : Нет
      Аудио #7
      Идентификатор : 8
      Формат : AC-3
      Формат/Информация : Audio Coding 3
      Профиль формата : Dolby Digital
      Расширение режима : CM (complete main)
      Параметр Endianness формата : Big
      Идентификатор кодека : A_AC3
      Продолжительность : 2 ч. 29 м.
      Вид битрейта : Постоянный
      Битрейт : 192 Кбит/сек
      Каналы : 2 канала
      Расположение каналов : Front: L R
      Частота : 48,0 КГц
      Битовая глубина : 16 бит
      Метод сжатия : С потерями
      Размер потока : 206 Мбайт (1%)
      Заголовок : Director + Producer Commentary
      Язык : English
      Default : Нет
      Forced : Нет
      Аудио #8
      Идентификатор : 9
      Формат : AC-3
      Формат/Информация : Audio Coding 3
      Профиль формата : Dolby Digital
      Расширение режима : CM (complete main)
      Параметр Endianness формата : Big
      Идентификатор кодека : A_AC3
      Продолжительность : 2 ч. 29 м.
      Вид битрейта : Постоянный
      Битрейт : 192 Кбит/сек
      Каналы : 2 канала
      Расположение каналов : Front: L R
      Частота : 48,0 КГц
      Битовая глубина : 16 бит
      Метод сжатия : С потерями
      Размер потока : 206 Мбайт (1%)
      Заголовок : Jodie Foster Commentary
      Язык : English
      Default : Нет
      Forced : Нет
      Аудио #9
      Идентификатор : 10
      Формат : AC-3
      Формат/Информация : Audio Coding 3
      Профиль формата : Dolby Digital
      Расширение режима : CM (complete main)
      Параметр Endianness формата : Big
      Идентификатор кодека : A_AC3
      Продолжительность : 2 ч. 29 м.
      Вид битрейта : Постоянный
      Битрейт : 192 Кбит/сек
      Каналы : 2 канала
      Расположение каналов : Front: L R
      Частота : 48,0 КГц
      Битовая глубина : 16 бит
      Метод сжатия : С потерями
      Размер потока : 206 Мбайт (1%)
      Заголовок : Visual Effect Commentary
      Язык : English
      Default : Нет
      Forced : Нет
      Текст #1
      Идентификатор : 11
      Формат : UTF-8
      Идентификатор кодека : S_TEXT/UTF8
      Идентификатор кодека/Информация : UTF-8 Plain Text
      Язык : Russian
      Default : Нет
      Forced : Нет
      Текст #2
      Идентификатор : 12
      Формат : UTF-8
      Идентификатор кодека : S_TEXT/UTF8
      Идентификатор кодека/Информация : UTF-8 Plain Text
      Язык : English
      Default : Нет
      Forced : Нет
      Меню
      00:00:00.000 : en:Chapter 1
      00:03:52.013 : en:Chapter 2
      00:07:28.438 : en:Chapter 3
      00:11:19.502 : en:Chapter 4
      00:13:51.988 : en:Chapter 5
      00:16:07.332 : en:Chapter 6
      00:20:58.290 : en:Chapter 7
      00:25:19.009 : en:Chapter 8
      00:28:42.545 : en:Chapter 9
      00:31:10.944 : en:Chapter 10
      00:33:46.725 : en:Chapter 11
      00:43:48.326 : en:Chapter 12
      00:47:11.363 : en:Chapter 13
      00:49:34.172 : en:Chapter 14
      00:51:51.977 : en:Chapter 15
      00:55:28.068 : en:Chapter 16
      00:58:47.225 : en:Chapter 17
      01:01:22.130 : en:Chapter 18
      01:03:51.696 : en:Chapter 19
      01:10:52.617 : en:Chapter 20
      01:12:34.344 : en:Chapter 21
      01:15:01.950 : en:Chapter 22
      01:17:44.321 : en:Chapter 23
      01:19:43.273 : en:Chapter 24
      01:22:55.048 : en:Chapter 25
      01:28:17.579 : en:Chapter 26
      01:34:01.172 : en:Chapter 27
      01:36:02.335 : en:Chapter 28
      01:38:48.084 : en:Chapter 29
      01:41:42.842 : en:Chapter 30
      01:45:28.652 : en:Chapter 31
      01:50:27.325 : en:Chapter 32
      01:54:27.274 : en:Chapter 33
      01:59:09.639 : en:Chapter 34
      02:01:28.862 : en:Chapter 35
      02:04:58.822 : en:Chapter 36
      02:07:57.626 : en:Chapter 37
      02:09:42.105 : en:Chapter 38
      02:13:14.067 : en:Chapter 39
      02:16:05.447 : en:Chapter 40
      02:18:16.870 : en:Chapter 41
      02:19:04.793 : en:Chapter 42
      02:21:40.991
    Скриншоты:
    Яндекс.Метрика
    Рейтинг@Mail.ru