Сокровища О.К. (2013) BDRip 720p | Лицензия

 

Создавать темы 29-Ноя-2013 10:43

Информация о фильме
Название: Сокровища О.К.
Оригинальное название: Сокровища О.К.
Год выхода: 2013
Жанр: комедия, приключения
Режиссер: Дмитрий Коробкин
В ролях: Алексей Воробьёв, Эльвира Ибрагимова, Мария Кожевникова, Байбулат Батуллин, Гоша Куценко, Сергей Шакуров, Виктор Вержбицкий, Ольга Волкова, Светлана Чуйкина, Сергей Никоненко, Юлия Березикова, В. Логвинов, Анвар Халилулаев, Халима Искандерова, Валентин Якупов, Денис Ясик, Михаил Водзуми

О фильме: Во время осады Казани Иваном Грозным прекрасная ханша Сююмбике приказывает спрятать несметные богатства в озере Кабан. И вот уже 500 лет судьба клада неизвестна… В наши дни тайна сокровищ открывается обаятельному ловеласу Кириллу, и он устремляется на поиски заветного клада. На пути к богатствам Кирилл знакомится с неприступной красавицей Гулей, которая совершенно не собирается попадать под влияние чар авантюриста. Но совместные похождения и постоянно преследующая опасность заставляют молодых людей иначе посмотреть друг на друга. И неужели только сокровища могут стать главной наградой за опасные приключения?!

Выпущено: Россия / Анно Домини
Продолжительность: 01:44:00
Озвучивание: Оригинал [лицензия]
Файл
Формат: MKV
Качество: BDRip 720p
Видео: 4858 kb/s, 1280x720
Аудио: AC3, 640 kb/s, (6 ch)

MI

Format : Matroska
Format version : Version 2
File size : 3.99 GiB
Duration : 1h 44mn
Overall bit rate : 5 497 Kbps
Encoded date : UTC 2013-11-28 07:06:35
Writing application : mkvmerge v6.1.0 ('Old Devil') built on Mar 4 2013 09:10:42
Writing library : libebml v1.3.0 + libmatroska v1.4.0
Video
ID : 1
Format : AVC
Format/Info : Advanced Video Codec
Format profile : [email protected]
Format settings, CABAC : Yes
Format settings, ReFrames : 10 frames
Codec ID : V_MPEG4/ISO/AVC
Duration : 1h 44mn
Bit rate : 4 858 Kbps
Width : 1 280 pixels
Height : 720 pixels
Display aspect ratio : 16:9
Frame rate : 25.000 fps
Color space : YUV
Chroma subsampling : 4:2:0
Bit depth : 8 bits
Scan type : Progressive
Bits/(Pixel*Frame) : 0.211
Stream size : 3.45 GiB (86%)
Writing library : x264 core 130 r2273 b3065e6
Encoding settings : cabac=1 / ref=10 / deblock=1:-3:-3 / analyse=0x3:0x133 / me=umh / subme=11 / psy=1 / psy_rd=1.00:0.20 / mixed_ref=1 / me_range=32 / chroma_me=1 / trellis=2 / 8x8dct=1 / cqm=0 / deadzone=21,11 / fast_pskip=0 / chroma_qp_offset=-3 / threads=12 / lookahead_threads=2 / sliced_threads=0 / nr=0 / decimate=0 / interlaced=0 / bluray_compat=0 / constrained_intra=0 / bframes=8 / b_pyramid=2 / b_adapt=2 / b_bias=0 / direct=3 / weightb=1 / open_gop=0 / weightp=2 / keyint=250 / keyint_min=25 / scenecut=40 / intra_refresh=0 / rc=2pass / mbtree=0 / bitrate=4858 / ratetol=1.0 / qcomp=0.60 / qpmin=0 / qpmax=69 / qpstep=4 / cplxblur=20.0 / qblur=0.5 / ip_ratio=1.40 / pb_ratio=1.30 / aq=1:1.00
Default : Yes
Forced : No
Audio
ID : 2
Format : AC-3
Format/Info : Audio Coding 3
Mode extension : CM (complete main)
Format settings, Endianness : Big
Codec ID : A_AC3
Duration : 1h 44mn
Bit rate mode : Constant
Bit rate : 640 Kbps
Channel(s) : 6 channels
Channel positions : Front: L C R, Side: L R, LFE
Sampling rate : 48.0 KHz
Bit depth : 16 bits
Compression mode : Lossy
Stream size : 476 MiB (12%)
Default : Yes
Forced : No

Скриншоты

Создавать темы 29-Ноя-2013 11:14 (спустя 31 минута)

Топик был перенесен из форума Отечественные Новинки (HD*Rip/LQ, DVDRip) в форум Новинки (HD)
[email protected]

Создавать темы 26-Янв-2016 23:26 (спустя 2 года 1 месяц)

Топик был перенесен из форума Новинки (HD) в форум Отечественные Фильмы (HD)
T_O_M
Яндекс.Метрика
Рейтинг@Mail.ru