Агнец божий / Paradise (2013) HDTV [1080i]

 

Создавать темы 12-Апр-2015 23:24

--Агнец божий / Paradise (2013) HDTV [1080i]-- Производство: США, Mandate Pictures
Жанр: Драма, Комедия
Режиссер: Диабло Коуди
Актеры: Джулианна Хаф, Ник Офферман, Расселл Брэнд, Холли Хантер, Октавия Спенсер, Кэтлин Роуз Перкинс, Алишия Окс, Даниэль Андраде, Дэн Флаэрти, Ильза Шлезингер
Описание:
В центре повествования находится молодая, но чрезмерно консервативная и религиозная женщина, которая теряет всю веру после авиакатастрофы и отправляется в Лас-Вегас, чтобы наверстать упущенное и согрешить с каждым встречным. Но вера — штука сложная, и она начинает неумолимо возвращаться по пути к месту назначения.-
Дата мировой премьеры: 8 августа 2013
Продолжительность: 01:19:47
Качество видео: HDTV [1080i]
Перевод: Многоголосый закадровый
Видеокодек: AVC/H.264
Битрейт видео: ~6694 kb/s
Размер кадра: 1920х1080
Аудио 1: Russian / MPEG Audio / 2.0 / 48 kHz / 192 kbps
Аудио 2: English / MPEG Audio / 2.0 / 48 kHz / 192 kbps
Аудио 3: Russian / АС-3 / 5.1 / 48 kHz / 384 kbps-

Mediainfo:

Код:
Общее
Идентификатор : 16 (0x10)
Полное имя : Paradise_HD.ts
Формат : MPEG-TS
Размер файла : 4,38 Гбайт
Продолжительность : 1 ч. 19 м.
Режим общего битрейта : Переменный
Общий поток : 7858 Кбит/сек
Видео
Идентификатор : 1812 (0x714)
Идентификатор меню : 812 (0x32C)
Формат : AVC
Формат/Информация : Advanced Video Codec
Профиль формата : [email protected]
Параметр CABAC формата : Да
Параметр ReFrames формата : 4 кадра
Идентификатор кодека : 27
Продолжительность : 1 ч. 19 м.
Битрейт : 6694 Кбит/сек
Ширина : 1920 пикселей
Высота : 1080 пикселей
Соотношение сторон : 16:9
Частота кадров : 25,000 кадров/сек
Стандарт вещания : PAL
Цветовое пространство : YUV
Субдискретизация насыщенности : 4:2:0
Битовая глубина : 8 бит
Тип развёртки : MBAFF
Бит/(Пиксели*Кадры) : 0.129
Размер потока : 3,73 Гбайт (85%)
Основные цвета : BT.709
Характеристики трансфера : BT.709
Коэффициенты матрицы : BT.709
Аудио #1
Идентификатор : 2812 (0xAFC)
Идентификатор меню : 812 (0x32C)
Формат : MPEG Audio
Версия формата : Version 1
Профиль формата : Layer 2
Режим : Joint stereo
Расширение режима : Intensity Stereo + MS Stereo
Идентификатор кодека : 4
Продолжительность : 1 ч. 19 м.
Вид битрейта : Постоянный
Битрейт : 192 Кбит/сек
Каналы : 2 канала
Частота : 48,0 КГц
Метод сжатия : С потерями
Задержка видео : 270 мс.
Размер потока : 110 Мбайт (2%)
Язык : std
Язык, дополнительно : Clean effects
Аудио #2
Идентификатор : 3812 (0xEE4)
Идентификатор меню : 812 (0x32C)
Формат : MPEG Audio
Версия формата : Version 1
Профиль формата : Layer 2
Режим : Joint stereo
Расширение режима : Intensity Stereo + MS Stereo
Идентификатор кодека : 4
Продолжительность : 1 ч. 19 м.
Вид битрейта : Постоянный
Битрейт : 192 Кбит/сек
Каналы : 2 канала
Частота : 48,0 КГц
Метод сжатия : С потерями
Задержка видео : 270 мс.
Размер потока : 110 Мбайт (2%)
Язык : English
Язык, дополнительно : Clean effects
Аудио #3
Идентификатор : 4812 (0x12CC)
Идентификатор меню : 812 (0x32C)
Формат : AC-3
Формат/Информация : Audio Coding 3
Расширение режима : CM (complete main)
Параметр Endianness формата : Big
Идентификатор кодека : 6
Продолжительность : 1 ч. 19 м.
Вид битрейта : Постоянный
Битрейт : 384 Кбит/сек
Каналы : 6 каналов
Расположение каналов : Front: L C R, Side: L R, LFE
Частота : 48,0 КГц
Битовая глубина : 16 бит
Метод сжатия : С потерями
Задержка видео : 206 мс.
Размер потока : 219 Мбайт (5%)
Язык : std
Язык, дополнительно : Clean effects
Текст
Идентификатор : 63 (0x3F)-100
Идентификатор меню : 812 (0x32C)
Формат : Teletext
Меню
Идентификатор : 812 (0x32C)
Идентификатор меню : 812 (0x32C)
Продолжительность : 1 ч. 19 м.
Список : 1812 (0x714) (AVC) / 2812 (0xAFC) (MPEG Audio, std) / 3812 (0xEE4) (MPEG Audio, English) / 4812 (0x12CC) (AC-3, std) / 63 (0x3F) ()
Язык : / std / English / std
Скриншоты:
Яндекс.Метрика
Рейтинг@Mail.ru