АББА: Фильм / ABBA: The Movie (1977) BDRip 1080p | P, A

 

Создавать темы 12-Апр-2015 22:13

Информация о фильме
Название: АББА: Фильм
Оригинальное название: ABBA: The Movie
Год выхода: 1977
Жанр: Музыкальный фильм (POP, Disco)
Режиссер: Лассе Халльстрём
В ролях: Агнета Фельтскуг, Бенни Андерссон, Бьерн Ульвеус, Анни-Фрид Люнгстад , Роберт Хьюз, Том Оливер, Брюс Барри, Стиг Андерсон, Рей Маршалл, Фрэнсис Мэттьюс
О фильме:
Фильм рассказывает об австралийских гастролях сверхпопулярной в свое время шведской группы "АББА". Незадачливый репортер и диск-жокей Хьюз, пытается взять интервью у музыкантов. Постановка красивая, динамичная, без провалов и пустот, умный монтаж, создающий впечатление документальности происходящего. Зритель узнает кое-что о жизни и методах их работы. Настоящий подарок для тех, кто до сих пор слушает эту талантливую музыку.

Страна: Австралия, Швеция
Студия: Polar Music International, Reg Grundy Productions Pty. Ltd.
Продолжительность: 01:35:17
Перевод: Профессиональный (многоголосый закадровый), Авторский одноголосый
Файл
Кодек: h.264
Качество: BDRip 1080p
Видео: MPEG-4 AVC, 1920x824, 8 200 Кбит/с, 24.000 кадр/с
Звук:
Аудио #1: Русский ( AC3, 6ch, 640 Кбит/с, 48.0 KHz) Профессиональный многоголосый (MVO)
Аудио #2: Русский ( DTS, 6ch, 1510 Кбит/с, 48.0 KHz) Авторский одноголосый закадровый (А.Гаврилов)
Аудио #3: Английский ( AC3, 6ch, 640 Кбит/с, 48.0 KHz)

MediaInfo

Complete name : Abba.The.Movie.1977.BDRip.1080p.mkv
Format : Matroska
Format version : Version 4 / Version 2
File size : 7.32 GiB
Duration : 1h 35mn
Overall bit rate : 11.0 Mbps
Encoded date : UTC 2015-04-11 15:37:27
Writing application : mkvmerge v7.8.0 ('River Man') 64bit built on Mar 27 2015 16:31:37
Writing library : libebml v1.3.1 + libmatroska v1.4.2
DURATION : 01:35:17.216000000
NUMBER_OF_FRAMES : 535989
NUMBER_OF_BYTES : 1078945857
_STATISTICS_WRITING_APP : mkvmerge v7.8.0 ('River Man') 64bit built on Mar 27 2015 16:31:37
_STATISTICS_WRITING_DATE_UTC : 2015-04-11 15:37:27
_STATISTICS_TAGS : BPS DURATION NUMBER_OF_FRAMES NUMBER_OF_BYTES
Video
ID : 1
Format : AVC
Format/Info : Advanced Video Codec
Format profile : [email protected]
Format settings, CABAC : Yes
Format settings, ReFrames : 4 frames
Codec ID : V_MPEG4/ISO/AVC
Duration : 1h 35mn
Bit rate : 8 200 Kbps
Width : 1 920 pixels
Height : 824 pixels
Display aspect ratio : 2.35:1
Frame rate mode : Constant
Frame rate : 24.000 fps
Color space : YUV
Chroma subsampling : 4:2:0
Bit depth : 8 bits
Scan type : Progressive
Bits/(Pixel*Frame) : 0.216
Stream size : 5.31 GiB (73%)
Title : Video
Writing library : x264 core 130 r2273 b3065e6
Encoding settings : cabac=1 / ref=4 / deblock=1:-3:-3 / analyse=0x3:0x113 / me=umh / subme=11 / psy=1 / psy_rd=1.00:0.15 / mixed_ref=1 / me_range=32 / chroma_me=1 / trellis=2 / 8x8dct=1 / cqm=0 / deadzone=21,11 / fast_pskip=0 / chroma_qp_offset=2 / threads=6 / lookahead_threads=1 / sliced_threads=0 / nr=0 / decimate=1 / interlaced=0 / bluray_compat=0 / constrained_intra=0 / bframes=8 / b_pyramid=2 / b_adapt=2 / b_bias=0 / direct=3 / weightb=1 / open_gop=1 / weightp=2 / keyint=250 / keyint_min=23 / scenecut=40 / intra_refresh=0 / rc_lookahead=50 / rc=2pass / mbtree=1 / bitrate=8200 / ratetol=1.0 / qcomp=0.69 / qpmin=0 / qpmax=69 / qpstep=4 / cplxblur=20.0 / qblur=0.5 / ip_ratio=1.40 / aq=1:1.00
Language : Swedish
Default : Yes
Forced : No
Audio #1
ID : 2
Format : AC-3
Format/Info : Audio Coding 3
Mode extension : CM (complete main)
Format settings, Endianness : Big
Codec ID : A_AC3
Duration : 1h 35mn
Bit rate mode : Constant
Bit rate : 640 Kbps
Channel(s) : 6 channels
Channel positions : Front: L C R, Side: L R, LFE
Sampling rate : 48.0 KHz
Bit depth : 16 bits
Compression mode : Lossy
Stream size : 436 MiB (6%)
Title : Audio 1
Language : Russian
Default : Yes
Forced : No
Audio #2
ID : 3
Format : DTS
Format/Info : Digital Theater Systems
Mode : 16
Format settings, Endianness : Big
Codec ID : A_DTS
Duration : 1h 35mn
Bit rate mode : Constant
Bit rate : 1 510 Kbps
Channel(s) : 6 channels
Channel positions : Front: L C R, Side: L R, LFE
Sampling rate : 48.0 KHz
Bit depth : 24 bits
Compression mode : Lossy
Stream size : 1.00 GiB (14%)
Title : Audio 2
Language : Russian
Default : No
Forced : No
Audio #3
ID : 4
Format : AC-3
Format/Info : Audio Coding 3
Mode extension : CM (complete main)
Format settings, Endianness : Big
Codec ID : A_AC3
Duration : 1h 35mn
Bit rate mode : Constant
Bit rate : 640 Kbps
Channel(s) : 6 channels
Channel positions : Front: L C R, Side: L R, LFE
Sampling rate : 48.0 KHz
Bit depth : 16 bits
Compression mode : Lossy
Stream size : 436 MiB (6%)
Title : Audio 3
Language : English
Default : No
Forced : No
Menu
00:00:00.000 : en:Chapter 1
00:03:41.125 : en:Chapter 2
00:05:56.208 : en:Chapter 3
00:10:18.416 : en:Chapter 4
00:18:36.875 : en:Chapter 5
00:25:27.375 : en:Chapter 6
00:32:20.041 : en:Chapter 7
00:41:58.125 : en:Chapter 8
00:48:05.791 : en:Chapter 9
00:52:53.166 : en:Chapter 10
01:03:39.541 : en:Chapter 11
01:12:35.291 : en:Chapter 12
01:17:07.666 : en:Chapter 13
01:21:33.541 : en:Chapter 14
01:29:54.458 : en:Chapter 15
01:33:29.791 : en:Chapter 16

Треклист:

01. Please Change Your Mind
02. Hole In Your Soul
03. Tiger
04. SOS
05. Money, Money, Money
06. He Is Your Brother
07. Intermezzo no 1
08. Waterloo
09. Mamma Mia
10. Lonah Pa Snippen
11. Polkan Gar
12. Rock Me
13. Stoned
14. The Naim Waiting Of The Game
15. Ring Ring
16. Why Did It Have To Be Me
17. When I Kissed The Teacher
18. Get On The Carousel
19. I'm A Marionete
20. Fernando
21. Dancing Queen
22. So Long
23. Eagle
24. Thank You For The Music
-

Скриншоты

Яндекс.Метрика
Рейтинг@Mail.ru