Железный кулак 2 / The Man with the Iron Fists 2 (2015) WEB-DLRip

 

Создавать темы 12-Апр-2015 13:55

--Железный кулак 2 / The Man with the Iron Fists 2 (2015) WEB-DLRip-- Производство: США, Iron Fists
Жанр: Боевик
Режиссер: Роэль Рейн / Roel Reiné
Актеры: RZA, Кэри-Хироюки Тагава, Сахайак Бунсанакит, Пим Бабиер, Оушен Хоу, Грэйс Хуанг, Хой Линь, Шири Стивен Лавенштайн, Карл Нг, Дастин Нгуен
Описание:
Шахтер Ли Кунг и его жена А Ни обнаружили раненного незнакомца Фаддеуса около деревни и дали ему убежище. После лечения он ввязался в конфликт со зловещим мастером Хо, его мерзким кланом Битл и ужасным Лордом Пи.-
Дата российской премьеры: 14 апреля 2015
Продолжительность: 01:30:25
Качество видео: WEB-DLRip
Перевод: Двуголосый закадровый, любительский (Sunny-Films)
Субтитры: отсутствуют
Видеокодек: Xvid
Битрейт видео: ~1772 Кбит/сек
Размер кадра: 720x400
Аудиокодек: AC3 2.0
Аудио 1:48 kHz, AC3 Dolby Digital, 2/0 (L,R) ch, ~192 kbps RUS
Аудио 2:48 kHz, AC3 Dolby Digital, 2/0 (L,R) ch, ~192 kbps ENG
Битрейт аудио: 192 Кбит/сек-

Mediainfo:

Код:
Общее
Полное имя : D:\The.Man.with.the.Iron.Fists.2.2015.WEB-DLRip.avi
Формат : AVI
Формат/Информация : Audio Video Interleave
Размер файла : 1,37 Гбайт
Продолжительность : 1 ч. 30 м.
Общий поток : 2170 Кбит/сек
Программа кодирования :VirtualDubMod 1.5.10.2 http://nnm-club.me/forum/viewtopic.php?t=122085
Библиотека кодирования : VirtualDubMod
Видео
Идентификатор : 0
Формат : MPEG-4 Visual
Профиль формата : Advanced [email protected]
Параметр BVOP формата : 1
Параметр QPel формата : Нет
Параметр GMC формата : Без точки перехода
Параметр матрицы формата : Выборочная
Идентификатор кодека : XVID
Идентификатор кодека/Подсказка : XviD
Продолжительность : 1 ч. 30 м.
Битрейт : 1772 Кбит/сек
Ширина : 720 пикселей
Высота : 400 пикселей
Соотношение сторон : 16:9
Частота кадров : 23,976 кадра/сек
Цветовое пространство : YUV
Субдискретизация насыщенности : 4:2:0
Битовая глубина : 8 бит
Тип развёртки : Прогрессивная
Метод сжатия : С потерями
Бит/(Пиксели*Кадры) : 0.257
Размер потока : 1,12 Гбайт (82%)
Библиотека кодирования : XviD 73
Аудио #1
Идентификатор : 1
Формат : AC-3
Формат/Информация : Audio Coding 3
Расширение режима : CM (complete main)
Параметр Endianness формата : Big
Идентификатор кодека : 2000
Продолжительность : 1 ч. 30 м.
Вид битрейта : Постоянный
Битрейт : 192 Кбит/сек
Каналы : 2 канала
Расположение каналов : Front: L R
Частота : 48,0 КГц
Битовая глубина : 16 бит
Метод сжатия : С потерями
Размер потока : 124 Мбайт (9%)
Выравнивание : Разделение по промежуткам
Продолжительность промежутка : 42 мс. (1,00 видеокадр)
Время предзагрузки промежутка : 500 мс.
Аудио #2
Идентификатор : 2
Формат : AC-3
Формат/Информация : Audio Coding 3
Расширение режима : CM (complete main)
Параметр Endianness формата : Big
Идентификатор кодека : 2000
Продолжительность : 1 ч. 30 м.
Вид битрейта : Постоянный
Битрейт : 192 Кбит/сек
Каналы : 2 канала
Расположение каналов : Front: L R
Частота : 48,0 КГц
Битовая глубина : 16 бит
Метод сжатия : С потерями
Задержка видео : 5 мс.
Размер потока : 124 Мбайт (9%)
Выравнивание : Разделение по промежуткам
Продолжительность промежутка : 42 мс. (1,00 видеокадр)
Время предзагрузки промежутка : 500 мс.
Скриншоты:
Яндекс.Метрика
Рейтинг@Mail.ru